img image001 image001 image001 image001 image001 image001 image001 image001 image001 image001 image001 image001 image001 image001 image001

Planets Sun Sun Sun
Статистика раздачи
Автор: Nickolas3434 | Размер: 5.43 ГБ | Добавлен: 12 янв 2018
Раздают: 18    Качают: 3
Скачать торрент
Скачать торрент
Описание торрента

СообщениеДобавлено: 12 янв 2018 


Информация о фильме
Название: Полный расколбас
Оригинальное название: Sausage Party
Год выхода: 2016
Жанр: мультфильм, фэнтези, комедия, приключения
Режиссер: Грег Тирнан, Конрад Вернон
В ролях: Сет Роген, Кристен Уиг, Джона Хилл, Билл Хейдер, Майкл Сера, Джеймс Франко, Дэнни МакБрайд, Крэйг Робинсон, Пол Радд, Ник Кролл
О фильме:Первая анимационная комедия для взрослых о невероятных приключениях еды из супермаркета. Съедобным друзьям предстоит получить ответ на главный вопрос: есть ли жизнь за стенами супермаркета, и что же происходит с продуктами после того, как они попадают к людям домой?
Страна: США, Камбоджа
Студия: Columbia Pictures
Продолжительность: 01:28:45
Перевод #1: Профессиональный (полное дублирование) [Blu-Ray CEE]
Перевод #2: Авторский (одноголосый) [Д. Пучков "Goblin"]
Перевод #3: Авторский (одноголосый) [А. Алексеев]
Перевод #4: Авторский (одноголосый) [М. Чадов]
Файл
Кодек: MKV (x264)
Качество: BDRip 720p [EbP]
Видео: 5636 kb/s, 1280x690, 23.976 fps, 1.85:1
Звук #1: AC3, 640 kb/s, 6 ch, 48 КГц, 16 бит [Dub]
Звук #2: AC3, 192 kb/s, 2 ch, 48 КГц, 16 бит [AVO, Goblin]
Звук #3: AC3, 640 kb/s, 6 ch, 48 КГц, 16 бит [AVO, Алексеев]
Звук #4: AC3, 640 kb/s, 6 ch, 48 КГц, 16 бит [AVO, Чадов]
Звук #5: AC3, 192 kb/s, 2 ch, 48 КГц, 16 бит [Ukr, Dub]
Звук #6: AC3, 640 kb/s, 6 ch, 48 КГц, 16 бит [Eng, Оригинал]
Субтитры: русские (Forced, Full), English (Full, SDH)
Во всех авторских переводах присутствует ненормативная лексика!
Format : Matroska
Format version : Version 4 / Version 2
File size : 5.43 GiB
Duration : 1h 28mn
Overall bit rate : 8 755 Kbps
Encoded date : UTC 2018-01-08 17:49:49
Writing application : mkvmerge v6.9.1 ('Blue Panther') 64bit built on Apr 18 2014 18:23:38
Writing library : libebml v1.3.0 + libmatroska v1.4.1
Cover : Yes / Yes
Video
ID : 1
Format : AVC
Format/Info : Advanced Video Codec
Format profile : [email protected]
Format settings, CABAC : Yes
Format settings, ReFrames : 9 frames
Codec ID : V_MPEG4/ISO/AVC
Duration : 1h 28mn
Bit rate : 5 636 Kbps
Width : 1 280 pixels
Height : 690 pixels
Display aspect ratio : 1.85:1
Frame rate mode : Constant
Frame rate : 23.976 fps
Color space : YUV
Chroma subsampling : 4:2:0
Bit depth : 8 bits
Scan type : Progressive
Bits/(Pixel*Frame) : 0.266
Stream size : 3.49 GiB (64%)
Writing library : x264 core 142 r2431+42 c69a006 tMod [[email protected]:2:0 X86_64]
Encoding settings : cabac=1 / ref=9 / deblock=1:-3:-3 / analyse=0x3:0x133 / me=umh / subme=10 / psy=1 / fade_compensate=0.00 / psy_rd=1.00:0.00 / mixed_ref=1 / me_range=32 / chroma_me=1 / trellis=2 / 8x8dct=1 / cqm=0 / deadzone=21,11 / fast_pskip=0 / chroma_qp_offset=-2 / threads=12 / lookahead_threads=2 / sliced_threads=0 / nr=0 / decimate=0 / interlaced=0 / bluray_compat=0 / constrained_intra=0 / fgo=0 / bframes=9 / b_pyramid=2 / b_adapt=2 / b_bias=0 / direct=3 / weightb=1 / open_gop=0 / weightp=2 / keyint=250 / keyint_min=23 / scenecut=40 / intra_refresh=0 / rc_lookahead=60 / rc=crf / mbtree=0 / crf=16.6000 / qcomp=0.62 / qpmin=0:0:0 / qpmax=69:69:69 / qpstep=4 / vbv_maxrate=50000 / vbv_bufsize=62500 / crf_max=0.0 / nal_hrd=none / filler=0 / ip_ratio=1.35 / pb_ratio=1.25 / aq=3:0.91 / aq-sensitivity=10.00 / aq-factor=1.00:1.00:1.00 / aq2=0 / aq3=0 / zones=58,829,crf=16/4096,4379,crf=16/4872,4959,crf=16/5628,5728,crf=16/15432,15523,crf=16/47155,47291,crf=16/48784,48847,crf=16/55941,55975,crf=16/108015,110003,crf=16/112311,113638,crf=16/114728,114923,crf=16/116897,117887,crf=16
Default : No
Forced : No
Audio #1
ID : 2
Format : AC-3
Format/Info : Audio Coding 3
Mode extension : CM (complete main)
Format settings, Endianness : Big
Codec ID : A_AC3
Duration : 1h 28mn
Bit rate mode : Constant
Bit rate : 640 Kbps
Channel(s) : 6 channels
Channel positions : Front: L C R, Side: L R, LFE
Sampling rate : 48.0 KHz
Bit depth : 16 bits
Compression mode : Lossy
Stream size : 406 MiB (7%)
Title : Dub
Language : Russian
Default : Yes
Forced : No
Audio #2
ID : 3
Format : AC-3
Format/Info : Audio Coding 3
Mode extension : CM (complete main)
Format settings, Endianness : Big
Codec ID : A_AC3
Duration : 1h 28mn
Bit rate mode : Constant
Bit rate : 192 Kbps
Channel(s) : 2 channels
Channel positions : Front: L R
Sampling rate : 48.0 KHz
Bit depth : 16 bits
Compression mode : Lossy
Stream size : 122 MiB (2%)
Title : AVO, Goblin
Language : Russian
Default : No
Forced : No
Audio #3
ID : 4
Format : AC-3
Format/Info : Audio Coding 3
Mode extension : CM (complete main)
Format settings, Endianness : Big
Codec ID : A_AC3
Duration : 1h 28mn
Bit rate mode : Constant
Bit rate : 640 Kbps
Channel(s) : 6 channels
Channel positions : Front: L C R, Side: L R, LFE
Sampling rate : 48.0 KHz
Bit depth : 16 bits
Compression mode : Lossy
Stream size : 406 MiB (7%)
Title : AVO, Alekseev
Language : Russian
Default : No
Forced : No
Audio #4
ID : 5
Format : AC-3
Format/Info : Audio Coding 3
Mode extension : CM (complete main)
Format settings, Endianness : Big
Codec ID : A_AC3
Duration : 1h 28mn
Bit rate mode : Constant
Bit rate : 640 Kbps
Channel(s) : 6 channels
Channel positions : Front: L C R, Side: L R, LFE
Sampling rate : 48.0 KHz
Bit depth : 16 bits
Compression mode : Lossy
Stream size : 406 MiB (7%)
Title : VO, Chadov
Language : Russian
Default : No
Forced : No
Audio #5
ID : 6
Format : AC-3
Format/Info : Audio Coding 3
Mode extension : CM (complete main)
Format settings, Endianness : Big
Codec ID : A_AC3
Duration : 1h 28mn
Bit rate mode : Constant
Bit rate : 192 Kbps
Channel(s) : 2 channels
Channel positions : Front: L R
Sampling rate : 48.0 KHz
Bit depth : 16 bits
Compression mode : Lossy
Stream size : 122 MiB (2%)
Title : Dub
Language : Ukrainian
Default : No
Forced : No
Audio #6
ID : 7
Format : AC-3
Format/Info : Audio Coding 3
Mode extension : CM (complete main)
Format settings, Endianness : Big
Codec ID : A_AC3
Duration : 1h 28mn
Bit rate mode : Constant
Bit rate : 640 Kbps
Channel(s) : 6 channels
Channel positions : Front: L C R, Side: L R, LFE
Sampling rate : 48.0 KHz
Bit depth : 16 bits
Compression mode : Lossy
Stream size : 406 MiB (7%)
Language : English
Default : No
Forced : No
Text #1
ID : 8
Format : UTF-8
Codec ID : S_TEXT/UTF8
Codec ID/Info : UTF-8 Plain Text
Title : Forced
Language : Russian
Default : Yes
Forced : No
Text #2
ID : 9
Format : UTF-8
Codec ID : S_TEXT/UTF8
Codec ID/Info : UTF-8 Plain Text
Title : Full
Language : Russian
Default : No
Forced : No
Text #3
ID : 10
Format : UTF-8
Codec ID : S_TEXT/UTF8
Codec ID/Info : UTF-8 Plain Text
Title : Full
Language : English
Default : No
Forced : No
Text #4
ID : 11
Format : UTF-8
Codec ID : S_TEXT/UTF8
Codec ID/Info : UTF-8 Plain Text
Title : SDH
Language : English
Default : No
Forced : No
Menu
00:00:00.000 : en:00:00:00.000
00:04:24.264 : en:00:04:24.264
00:10:19.118 : en:00:10:19.118
00:15:27.844 : en:00:15:27.844
00:19:32.171 : en:00:19:32.171
00:24:53.701 : en:00:24:53.701
00:29:32.938 : en:00:29:32.938
00:35:44.142 : en:00:35:44.142
00:41:55.263 : en:00:41:55.263
00:48:18.521 : en:00:48:18.521
00:54:45.908 : en:00:54:45.908
00:59:54.508 : en:00:59:54.508
01:03:47.073 : en:01:03:47.073
01:08:01.286 : en:01:08:01.286
01:11:55.811 : en:01:11:55.811
01:16:03.809 : en:01:16:03.809



   Похожие торренты   Торрент   Размер 
В этой теме нет новых непрочитанных сообщений. Полный расколбас / Sausage Party (2016) BDRip 720p | Лицензия

346 | 22

4.93 ГБ

В этой теме нет новых непрочитанных сообщений. Полный расколбас / Sausage Party (2016) BDRip 720p от NNNB | D, A

29 | 7

4.37 ГБ

В этой теме нет новых непрочитанных сообщений. Полный расколбас / Sausage Party (2016) BDRip 720p | Гоблин

182 | 8

3.34 ГБ

В этой теме нет новых непрочитанных сообщений. Полный расколбас / Sausage Party (2016) BDRip 720p от R.G.Resident | iTunes

249 | 8

3.96 ГБ

В этой теме нет новых непрочитанных сообщений. Полный расколбас / Sausage Party (2016) BDRip 720p от ExKinoRay | iTunes

19 | 7

5.1 ГБ

В этой теме нет новых непрочитанных сообщений. Полный расколбас / Sausage Party (2016) BDRip 720p от ExKinoRay | iTunes

5 | 3

5.48 ГБ

В этой теме нет новых непрочитанных сообщений. Полный расколбас / Sausage Party (2016) BDRip от MegaPeer | A

37 | 4

1.46 ГБ




Вы не можете начинать темы
Вы не можете отвечать на сообщения
Вы не можете редактировать свои сообщения
Вы не можете удалять свои сообщения
Вы не можете добавлять вложения

Перейти:  
Для Мосгорсуда, Роскомнадзора и рекламодателей: mosgorsud-torrent[собачка]yandex.ru
 Вход
ppkBB3cker v.2 © 2008-2014 @ PPK
[ Time : 0.038s | 18 Queries | GZIP : Off ]

cron