img image001 image001 image001 image001 image001 image001 image001 image001 image001 image001 image001 image001 image001 image001 image001

Planets Sun Sun Sun
Статистика раздачи
Автор: Nickolas3434 | Размер: 745.83 МБ | Добавлен: 12 янв 2018
Раздают: 30    Качают: 3
Скачать торрент
Скачать торрент
Описание торрента

СообщениеДобавлено: 12 янв 2018 

Информация о фильме
Название: Лебединая труба
Оригинальное название: The Trumpet of the Swan
Год выхода: 2001
Жанр: Мультфильм, мюзикл, драма, семейный
Режиссер: Тэрри Носс, Ричард Рич
В ролях: Джейсон Александр, Мэри Стинберген, Риз Уизерспун, Сет Грин, Кэрол Бёрнетт, Джо Мантенья, Сэм Гифальди, Ди Брэдли Бейкер, Мелисса Дисней, Кэт Сауси
О фильме :
Фильм рассказывает историю Луиса, молодого лебедя, который не может трубить. На самом деле он вообще не может издать ни одного звука, В итоге он попадает в трудное положение, когда пытается ухаживать за Сереной, самой прекрасной из всех лебедей, которые встречались ему в жизни. С помощью отца Луис учится играть на трубе и многому другому.

Страна: США
Студия: TriStar Pictures, Nest Family Entertainment, RichCrest Animation
Продолжительность: 01:14:44
Перевод: Профессиональный (полное дублирование)
Файл
Формат: MKV
Качество: WEB-DLRip-AVC
Видео: MPEG-4 AVC, 784x444, ~ 1317 Кбит/с
Аудио: AAC-LC, 2 ch, ~ 76 Кбит/с
Общее
Уникальный идентификатор : 254930835063206636171361707086622266069 (0xBFC9E495113E218682BBD1BB162892D5)
Полное имя : D:MOVIESThe Trumpet of the Swan.2001.ExKinoRay.mkv
Формат : Matroska
Версия формата : Version 2
Размер файла : 746 Мбайт
Продолжительность : 1 ч. 14 м.
Общий поток : 1395 Кбит/сек
Дата кодирования : UTC 2018-01-08 09:05:06
Программа кодирования : mkvmerge v19.0.0 ('Brave Captain') 64-bit
Библиотека кодирования : libebml v1.3.5 + libmatroska v1.4.8
Видео
Идентификатор : 1
Формат : AVC
Формат/Информация : Advanced Video Codec
Профиль формата : [email protected]
Параметр CABAC формата : Да
Параметр RefFrames формата : 10 кадров
Идентификатор кодека : V_MPEG4/ISO/AVC
Продолжительность : 1 ч. 14 м.
Битрейт : 1317 Кбит/сек
Ширина : 784 пикселя
Высота : 444 пикселя
Соотношение сторон : 16:9
Режим частоты кадров : Постоянный
Частота кадров : 23,976 (24000/1001) кадра/сек
Цветовое пространство : YUV
Субдискретизация насыщенности : 4:2:0
Битовая глубина : 8 бит
Тип развёртки : Прогрессивная
Бит/(Пиксели*Кадры) : 0.158
Размер потока : 704 Мбайт (94%)
Библиотека кодирования : x264 core 152 r2851kMod ba24899
Настройки программы : cabac=1 / ref=10 / deblock=1:-3:-3 / analyse=0x3:0x133 / me=umh / subme=11 / psy=1 / fade_compensate=0.00 / psy_rd=1.00:0.12 / mixed_ref=1 / me_range=32 / chroma_me=1 / trellis=2 / 8x8dct=1 / cqm=0 / deadzone=21,11 / fast_pskip=0 / chroma_qp_offset=-3 / threads=6 / lookahead_threads=1 / sliced_threads=0 / nr=0 / decimate=0 / interlaced=0 / bluray_compat=0 / constrained_intra=0 / bframes=10 / b_pyramid=2 / b_adapt=2 / b_bias=0 / direct=3 / weightb=1 / open_gop=0 / weightp=2 / keyint=240 / keyint_min=23 / scenecut=40 / intra_refresh=0 / rc_lookahead=40 / rc=2pass / mbtree=1 / bitrate=1317 / ratetol=1.0 / qcomp=0.60 / qpmin=0 / qpmax=69 / qpstep=4 / cplxblur=20.0 / qblur=0.5 / vbv_maxrate=50000 / vbv_bufsize=62500 / nal_hrd=none / filler=0 / ip_ratio=1.40 / aq=3:1.00
Default : Да
Forced : Нет
Аудио
Идентификатор : 2
Формат : AAC
Формат/Информация : Advanced Audio Codec
Профиль формата : LC
Идентификатор кодека : A_AAC
Продолжительность : 1 ч. 14 м.
Битрейт : 76,0 Кбит/сек
Каналы : 2 канала
Расположение каналов : Front: L R
Частота : 48,0 КГц
Частота кадров : 46,875 кадров/сек (1024 SPF)
Метод сжатия : С потерями
Задержка видео : 9 мс.
Размер потока : 40,6 Мбайт (5%)
Язык : Russian
Default : Да
Forced : Нет


Релиз от:



   Похожие торренты   Торрент   Размер 
В этой теме нет новых непрочитанных сообщений. Лебединая труба / The Trumpet of the Swan (2001) DVDRip | A

46 | 6

736.8 МБ

В этой теме нет новых непрочитанных сообщений. Венок Романсов 3: Лебединая соната / Dark Romance 3: The Swan Sonata CE (2015) PC

2518 | 120

1018.75 МБ

В этой теме нет новых непрочитанных сообщений. Коломбо: Лебединая песня / Columbo: Swan Song (1974) DVDRip от Киномагия l P2

236 | 10

1.35 ГБ

В этой теме нет новых непрочитанных сообщений. Roy Eldridge - Little Jazz Trumpet Giant [4 CD] (2004) MP3 от BestSound ExKinoRay

6 | 0

739.55 МБ

В этой теме нет новых непрочитанных сообщений. Ottmar Liebert - Waiting n Swan (2015) MP3 от BestSound ExKinoRay

81 | 10

130.98 МБ

В этой теме нет новых непрочитанных сообщений. Принцесса Лебедь / The Swan Princess [Коллекция] (1994-2016) DVDRip-AVC, HDRip-AVC от ExKinoRay | D, P

25 | 7

8.71 ГБ

В этой теме нет новых непрочитанных сообщений. Принцесса Лебедь (Коллекция 6 частей) / The Swan Princess (1994-2016) DVDRip, HDRip от ExKinoRay | D, P

30 | 2

6.46 ГБ




Вы не можете начинать темы
Вы не можете отвечать на сообщения
Вы не можете редактировать свои сообщения
Вы не можете удалять свои сообщения
Вы не можете добавлять вложения

Перейти:  
Для Мосгорсуда, Роскомнадзора и рекламодателей: mosgorsud-torrent[собачка]yandex.ru
 Вход
ppkBB3cker v.2 © 2008-2014 @ PPK
[ Time : 0.636s | 19 Queries | GZIP : Off ]

cron