img image001 image001 image001 image001 image001 image001 image001 image001 image001 image001 image001 image001 image001 image001 image001

Planets Sun Sun Sun
Статистика раздачи
Автор: Nickolas3434 | Размер: 1.09 ГБ | Добавлен: 12 янв 2018
Раздают: 6    Качают: 1
Скачать торрент
Скачать торрент
Описание торрента

СообщениеДобавлено: 12 янв 2018 


Мы "В КОНТАКТЕ"


Страна: СССР
Производство: Киностудия им. Горького
Жанр: военная драма
Год выпуска: 1959
Продолжительность: 01:26:47
Перевод: Не требуется
Cубтитры: нет
Оригинальная аудиодорожка: русский
Режиссер: Юрий Победоносцев
В ролях:
Раиса Куркина, Кира Жаркова, Николай Елизаров, Анастасия Филиппова (Горина), Александр Дегтярь, Вячеслав Шалевич, Евгений Тетерин, Ольга Маркина, Марина Гаврилко, Михаил Трояновский, Алексей Барндык, Борис Токарев, Ольга Великанова, Саша Барабанов, Валерий Зубарев, Вадим Захарченко, Вера Липсток, Борис Кордунов, Зоя Толбузина, Николай Боголюбов, Наталия Селиверстова, Николай Кузьмин, Александр Афанасьев, Николай Гарин...
Об актёрах подробней
Описание:
Антонине Васильевне (Раиса Куркина),как члену бюро райкома партии, поручили спасти ленинградских детей, которых война застигла в пригородных лагерях. Она повезла их в Кировскую область. После двенадцати дней тяжёлого пути дети прибыли в деревню Супрядки.





Исходник: WEB-DL 720p
Качество видео: WEB-DLRip
Формат видео: AVI
Видео: 720x544 (4:3), 25 fps, XviD ~ 1597 kbps avg, 0.163 bit/pixel
Аудио: 48 kHz, Dolby Digital AC3 2.0, 192 kbps
Раздача от:
Общее
Полное имя : Spasennoe.pokolenie.1959.WEB-DLRip_[New-team]_by_AVP_Studio.avi
Формат : AVI
Формат/Информация : Audio Video Interleave
Размер файла : 1,09 Гбайт
Продолжительность : 1 ч. 26 м.
Общий поток : 1799 Кбит/сек
Программа кодирования : VirtualDubMod 1.5.10.3 | www.virtualdub-fr.org || (build 2550/release)
Библиотека кодирования : VirtualDubMod build 2550/release
Видео
Идентификатор : 0
Формат : MPEG-4 Visual
Профиль формата : Advanced [email protected]
Настройки формата : BVOP1 / Custom Matrix
Параметр BVOP формата : 1
Параметр QPel формата : Нет
Параметр GMC формата : Без точки перехода
Параметр матрицы формата : Выборочная
Идентификатор кодека : XVID
Идентификатор кодека/Подсказка : XviD
Продолжительность : 1 ч. 26 м.
Битрейт : 1597 Кбит/сек
Ширина : 720 пикселей
Высота : 544 пикселя
Соотношение сторон : 4:3
Частота кадров : 25,000 кадров/сек
Цветовое пространство : YUV
Субдискретизация насыщенности : 4:2:0
Битовая глубина : 8 бит
Тип развёртки : Прогрессивная
Метод сжатия : С потерями
Бит/(Пиксели*Кадры) : 0.163
Размер потока : 991 Мбайт (89%)
Библиотека кодирования : XviD 73
Аудио
Идентификатор : 1
Формат : AC-3
Формат/Информация : Audio Coding 3
Идентификатор кодека : 2000
Продолжительность : 1 ч. 26 м.
Вид битрейта : Постоянный
Битрейт : 192 Кбит/сек
Каналы : 2 канала
Расположение каналов : Front: L R
Частота : 48,0 КГц
Частота кадров : 31,250 кадров/сек (1536 SPF)
Битовая глубина : 16 бит
Метод сжатия : С потерями
Размер потока : 119 Мбайт (11%)
Выравнивание : Разделение по промежуткам
Продолжительность промежутка : 40 мс. (1,00 видеокадр)
Время предзагрузки промежутка : 500 мс





   Похожие торренты   Торрент   Размер 
В этой теме нет новых непрочитанных сообщений. Спасенное поколение (1959) WEB-DLRip-AVC от New-Team

18 | 0

1.09 ГБ

В этой теме нет новых непрочитанных сообщений. Спасенное поколение (1959) WEB-DLRip от New-Team

0 | 0

745.74 МБ

В этой теме нет новых непрочитанных сообщений. Спасенное поколение (1959) WEB-DLRip от HitWay

2 | 0

651.17 МБ

В этой теме нет новых непрочитанных сообщений. Великое поколение / Голое поколение / A nagy generáció (1985) DVDRip

0 | 1

1.37 ГБ

В этой теме нет новых непрочитанных сообщений. Железное поколение / Generation Iron (2013) WEB-DLRip 720p | L2

563 | 76

3.65 ГБ

В этой теме нет новых непрочитанных сообщений. Сын Иристона (1959) SATRip от New-Team

3 | 0

745.67 МБ

В этой теме нет новых непрочитанных сообщений. Жестокость (1959) DVDRip от New-Team

7 | 0

745.46 МБ




Вы не можете начинать темы
Вы не можете отвечать на сообщения
Вы не можете редактировать свои сообщения
Вы не можете удалять свои сообщения
Вы не можете добавлять вложения

Перейти:  
Для Мосгорсуда, Роскомнадзора и рекламодателей: mosgorsud-torrent[собачка]yandex.ru
 Вход
ppkBB3cker v.2 © 2008-2014 @ PPK
[ Time : 0.043s | 18 Queries | GZIP : Off ]

cron