img image001 image001 image001 image001 image001 image001 image001 image001 image001 image001 image001 image001 image001 image001 image001

Planets Sun Sun Sun
Статистика раздачи
Автор: Nickolas3434 | Размер: 2.09 ГБ | Добавлен: 12 янв 2018
Раздают: 11    Качают: 2
Скачать торрент
Скачать торрент
Описание торрента

СообщениеДобавлено: 12 янв 2018 

Принцесса на горошине

Год выпуска: 1976
Жанр: сказка
Продолжительность: 89 мин.
Режиссер: Борис Рыцарев
В ролях: Ирина Малышева, Андрей Подошьян, Иннокентий Смоктуновский, Алиса Фрейндлих, Ирина Юревич, Марина Ливанова, Светлана Орлова, Юрий Чекулаев, Александр Калягин, Игорь Кваша, Владимир Зельдин, Евгений Стеблов, Виктор Куприянов, Николай Лавров, Виктор Сергачев
Описание: В одном царстве-государстве настала пора принцу жениться, только его суженая должна была быть настоящей принцессой. И вот на ворота повесили объявление: "Нужна Принцесса". Но в ответ пришла маленькая девушка-невеличка. Тогда шел проливной дождь, она промокла до костей и вовсе не походила на особу королевских кровей. Так что принцу пришлось отправиться в дальние страны, чтобы найти себе подходящую пару. За время своего путешествия повидал он вдоволь принцесс, умных да красивых. И все же, настоящей принцессой оказалась именно та девушка, что появилась в его дворце во время дождя...

Кодек: х264
Качество: DVDRip-AVC (полное издание от RUSCICO)
Видео: MPEG-4 AVC, [email protected], 25 fps, 2200 Кбит/с
Аудио 1: Русский, AC3, 6 ch, 448 Кбит/с
Аудио 2: Французский, AC3, 6 ch, 448 Кбит/с
Аудио 3: Английский, AC3, 6 ch, 448 Кбит/с

x264 [info]: frame I:726 Avg QP:15.51 size: 58103
x264 [info]: frame P:33166 Avg QP:17.90 size: 23410
x264 [info]: frame B:92474 Avg QP:19.80 size: 6181
Общее
Уникальный идентификатор : 191656487702933954301766441750452776972 (0x902FB26617D2B96AA1316B913A98300C)
Полное имя : E:Мои рипыПринцесса на горошине 1976_DVD-AVC_KORSAR.mkv
Формат : Matroska
Версия формата : Version 2
Размер файла : 2,09 Гбайт
Продолжительность : 1 ч. 24 м.
Общий поток : 3547 Кбит/сек
Дата кодирования : UTC 2018-01-09 19:28:27
Программа кодирования : mkvmerge v5.8.0 ('No Sleep / Pillow') built on Sep 2 2012 15:37:04
Библиотека кодирования : libebml v1.2.3 + libmatroska v1.3.0
Видео
Идентификатор : 1
Формат : AVC
Формат/Информация : Advanced Video Codec
Профиль формата : [email protected]
Настройки формата : CABAC / 14 Ref Frames
Параметр CABAC формата : Да
Параметр RefFrames формата : 14 кадров
Идентификатор кодека : V_MPEG4/ISO/AVC
Продолжительность : 1 ч. 24 м.
Битрейт : 2200 Кбит/сек
Ширина : 680 пикселей
Высота : 372 пикселя
Соотношение сторон : 2,599
Соотношение сторон в оригинале : 2,600
Режим частоты кадров : Постоянный
Частота кадров : 25,000 кадров/сек
Цветовое пространство : YUV
Субдискретизация насыщенности : 4:2:0
Битовая глубина : 8 бит
Тип развёртки : Прогрессивная
Бит/(Пиксели*Кадры) : 0.348
Размер потока : 1,25 Гбайт (60%)
Библиотека кодирования : x264 core 152 r2851kMod ba24899
Настройки программы : cabac=1 / ref=14 / deblock=1:-2:-2 / analyse=0x3:0x133 / me=umh / subme=11 / psy=1 / fade_compensate=0.00 / psy_rd=1.05:0.10 / mixed_ref=1 / me_range=48 / chroma_me=1 / trellis=2 / 8x8dct=1 / cqm=0 / deadzone=21,11 / fast_pskip=0 / chroma_qp_offset=-3 / threads=12 / lookahead_threads=2 / sliced_threads=0 / nr=0 / decimate=0 / interlaced=0 / bluray_compat=0 / constrained_intra=0 / bframes=14 / b_pyramid=2 / b_adapt=2 / b_bias=0 / direct=3 / weightb=1 / open_gop=0 / weightp=2 / keyint=250 / keyint_min=25 / scenecut=40 / intra_refresh=0 / rc_lookahead=40 / rc=2pass / mbtree=0 / bitrate=2200 / ratetol=1.0 / qcomp=0.60 / qpmin=0 / qpmax=39 / qpstep=4 / cplxblur=20.0 / qblur=0.5 / vbv_maxrate=50000 / vbv_bufsize=62500 / nal_hrd=none / filler=0 / ip_ratio=1.25 / pb_ratio=1.30 / aq=2:0.90
Язык : English
Default : Да
Forced : Нет
Цветовой диапазон : Limited
Основные цвета : BT.601 PAL
Характеристики трансфера : BT.470 System B, BT.470 System G
Коэффициенты матрицы : BT.470 System B, BT.470 System G
Аудио #1
Идентификатор : 2
Формат : AC-3
Формат/Информация : Audio Coding 3
Параметр Endianness формата : Big
Идентификатор кодека : A_AC3
Продолжительность : 1 ч. 24 м.
Вид битрейта : Постоянный
Битрейт : 448 Кбит/сек
Каналы : 6 каналов
Расположение каналов : Front: L C R, Side: L R, LFE
Частота : 48,0 КГц
Частота кадров : 31,250 кадров/сек (1536 SPF)
Битовая глубина : 16 бит
Метод сжатия : С потерями
Задержка видео : 200 мс.
Размер потока : 270 Мбайт (13%)
Язык : Russian
Default : Да
Forced : Нет
Аудио #2
Идентификатор : 3
Формат : AC-3
Формат/Информация : Audio Coding 3
Параметр Endianness формата : Big
Идентификатор кодека : A_AC3
Продолжительность : 1 ч. 24 м.
Вид битрейта : Постоянный
Битрейт : 448 Кбит/сек
Каналы : 6 каналов
Расположение каналов : Front: L C R, Side: L R, LFE
Частота : 48,0 КГц
Частота кадров : 31,250 кадров/сек (1536 SPF)
Битовая глубина : 16 бит
Метод сжатия : С потерями
Задержка видео : 200 мс.
Размер потока : 270 Мбайт (13%)
Язык : French
Default : Нет
Forced : Нет
Аудио #3
Идентификатор : 4
Формат : AC-3
Формат/Информация : Audio Coding 3
Параметр Endianness формата : Big
Идентификатор кодека : A_AC3
Продолжительность : 1 ч. 24 м.
Вид битрейта : Постоянный
Битрейт : 448 Кбит/сек
Каналы : 6 каналов
Расположение каналов : Front: L C R, Side: L R, LFE
Частота : 48,0 КГц
Частота кадров : 31,250 кадров/сек (1536 SPF)
Битовая глубина : 16 бит
Метод сжатия : С потерями
Задержка видео : 200 мс.
Размер потока : 270 Мбайт (13%)
Язык : English
Default : Нет
Forced : Нет




   Похожие торренты   Торрент   Размер 
В этой теме нет новых непрочитанных сообщений. Принцесса на горошине (1976) DVD-9

1 | 3

7.51 ГБ

В этой теме нет новых непрочитанных сообщений. Принцесса на горошине (1976) DVD5

3 | 24

4.31 ГБ

В этой теме нет новых непрочитанных сообщений. Принцесса на горошине (1976) от ExKinoRay

69 | 20

1.37 ГБ

В этой теме нет новых непрочитанных сообщений. Принцесса на горошине / The Princess and the Pea (2002) DVDRip от Gold Cartoon KINOREAKTOR (Sheikn)

59 | 8

1.26 ГБ

В этой теме нет новых непрочитанных сообщений. Обнаженная Принцесса / Голая Принцесса / The Nude Princess / La Principessa Nuda (1976) DVDRip от KinoRay & Sheikn | L1

120 | 30

699.94 МБ

В этой теме нет новых непрочитанных сообщений. Принцесса на горошине / Die Prinzessin auf der Erbse (2010) HDTV 1080i MediaClub | P

98 | 39

4.34 ГБ

В этой теме нет новых непрочитанных сообщений. Подранки (1976) DVDRip-AVC от KORSAR

6 | 1

1.37 ГБ




Вы не можете начинать темы
Вы не можете отвечать на сообщения
Вы не можете редактировать свои сообщения
Вы не можете удалять свои сообщения
Вы не можете добавлять вложения

Перейти:  
Для Мосгорсуда, Роскомнадзора и рекламодателей: mosgorsud-torrent[собачка]yandex.ru
 Вход
ppkBB3cker v.2 © 2008-2014 @ PPK
[ Time : 0.045s | 17 Queries | GZIP : Off ]

cron