img image001 image001 image001 image001 image001 image001 image001 image001 image001 image001 image001 image001 image001 image001 image001

Planets Sun Sun Sun
Статистика раздачи
Автор: Nickolas3434 | Размер: 2.67 ГБ | Добавлен: 12 янв 2018
Раздают: 23    Качают: 1
Скачать торрент
Скачать торрент
Описание торрента

СообщениеДобавлено: 12 янв 2018 

Пыль

Год выпуска: 2005
Страна: Россия
Жанр: фантастика, комедия, драма
Продолжительность: 01:49:48
Перевод: Не требуется
Сценарий: Марина Потапова
Продюсер: Михаил Синев
Оператор: Дмитрий Модель
Композитор: Павел Шевченко
Режиссер: Сергей Лобан
В ролях: Алексей Подольский, Петр Мамонов, Глеб Михайлов, Нина Елисова, Михаил Балинский, Олег Новиков, Лариса Пятницкая, Алексей Агеев, Псой Короленко, Дмитрий Пименов, Алексей Знаменский, Максим Тиунов
Описание: Герой фильма - неуклюжий неудачник, потрясающий русский Бивис то испуганно кивающий, то лепечущий: «я эт самое…». Бивиса и Бадхеда постоянно за кого-то принимают, берут у них интервью, вербуют в организации, проповедуют, пропагандируют политкорректные идеи, в то время как герои пусты, чисты, и от того неподвластны внешним воздействиям.
Нашего Лешу тоже постоянно принимают за кого-то, кем он не является. «Эх! Завидую я им! Свободное выросло поколение» - говорит правозащитник кивая на аутичного героя. Леша пассивен, Леша инфантилен, Леша - никто. Все, что происходит с ним - вариант классической «трагедии маленького человека», никому не нужного, никому не симпатичного, жалкого и отвратительного даже самому себе.

Кодек: х264
Качество: DVDRip-AVC
Видео: MPEG-4 AVC, [email protected], 25 fps, 3225 Кбит/с
Звук: AC3, 2 ch, 192 Кбит/с
Субтитры: русские, английские
Навигация по главам: да

x264 [info]: frame I:993 Avg QP:18.20 size: 61412
x264 [info]: frame P:35880 Avg QP:20.16 size: 34418
x264 [info]: frame B:127836 Avg QP:22.73 size: 11075
Общее
Уникальный идентификатор : 215815641544192510855198738622580791372 (0xA25C94A59729CF01A911C864FBD0184C)
Полное имя : D:Пыль_1995-DVDRip-AVC_KORSAR.mkv
Формат : Matroska
Версия формата : Version 2
Размер файла : 2,67 Гбайт
Продолжительность : 1 ч. 49 м.
Общий поток : 3487 Кбит/сек
Название фильма : Пыль_1995-DVDRip-AVC_KORSAR
Дата кодирования : UTC 2017-10-21 00:07:00
Программа кодирования : mkvmerge v5.8.0 ('No Sleep / Pillow') built on Sep 2 2012 15:37:04
Библиотека кодирования : libebml v1.2.3 + libmatroska v1.3.0
Видео
Идентификатор : 1
Формат : AVC
Формат/Информация : Advanced Video Codec
Профиль формата : [email protected]
Параметр CABAC формата : Да
Параметр RefFrames формата : 14 кадров
Идентификатор кодека : V_MPEG4/ISO/AVC
Продолжительность : 1 ч. 49 м.
Битрейт : 3225 Кбит/сек
Ширина : 702 пикселя
Высота : 570 пикселей
Соотношение сторон : 4:3
Соотношение сторон в оригинале : 4:3
Режим частоты кадров : Постоянный
Частота кадров : 25,000 кадров/сек
Цветовое пространство : YUV
Субдискретизация насыщенности : 4:2:0
Битовая глубина : 8 бит
Тип развёртки : Прогрессивная
Бит/(Пиксели*Кадры) : 0.322
Размер потока : 2,47 Гбайт (93%)
Библиотека кодирования : x264 core 148 r2744kMod b97ae06
Настройки программы : cabac=1 / ref=14 / deblock=1:-2:-1 / analyse=0x3:0x133 / me=umh / subme=10 / psy=1 / fade_compensate=0.00 / psy_rd=1.05:0.10 / mixed_ref=1 / me_range=32 / chroma_me=1 / trellis=2 / 8x8dct=1 / cqm=0 / deadzone=21,11 / fast_pskip=1 / chroma_qp_offset=-3 / threads=12 / lookahead_threads=3 / sliced_threads=0 / nr=0 / decimate=1 / interlaced=0 / bluray_compat=0 / constrained_intra=0 / bframes=16 / b_pyramid=2 / b_adapt=2 / b_bias=0 / direct=1 / weightb=1 / open_gop=0 / weightp=2 / keyint=250 / keyint_min=25 / scenecut=40 / intra_refresh=0 / rc=crf / mbtree=0 / crf=17.8000 / qcomp=0.63 / qpmin=0 / qpmax=39 / qpstep=4 / ip_ratio=1.40 / pb_ratio=1.30 / aq=2:1.00
Язык : English
Default : Да
Forced : Нет
Цветовой диапазон : Limited
Основные цвета : BT.601 PAL
Характеристики трансфера : BT.470 System B, BT.470 System G
Коэффициенты матрицы : BT.601
Аудио
Идентификатор : 2
Формат : AC-3
Формат/Информация : Audio Coding 3
Параметр Endianness формата : Big
Идентификатор кодека : A_AC3
Продолжительность : 1 ч. 49 м.
Вид битрейта : Постоянный
Битрейт : 192 Кбит/сек
Каналы : 2 канала
Расположение каналов : Front: L R
Частота : 48,0 КГц
Частота кадров : 31,250 кадров/сек (1536 SPF)
Битовая глубина : 16 бит
Метод сжатия : С потерями
Размер потока : 151 Мбайт (6%)
Язык : Russian
Default : Да
Forced : Нет
Текст #1
Идентификатор : 3
Формат : UTF-8
Идентификатор кодека : S_TEXT/UTF8
Идентификатор кодека/Информация : UTF-8 Plain Text
Язык : Russian
Default : Нет
Forced : Нет
Текст #2
Идентификатор : 4
Формат : UTF-8
Идентификатор кодека : S_TEXT/UTF8
Идентификатор кодека/Информация : UTF-8 Plain Text
Язык : English
Default : Нет
Forced : Нет
Меню
00:00:00.000 : en:Chapter 1
00:02:35.960 : en:Chapter 2
00:05:18.400 : en:Chapter 3
00:08:03.280 : en:Chapter 4
00:12:54.040 : en:Chapter 5
00:19:42.320 : en:Chapter 6
00:26:05.800 : en:Chapter 7
00:30:28.480 : en:Chapter 8
00:34:07.360 : en:Chapter 9
00:39:09.920 : en:Chapter 10
00:42:47.200 : en:Chapter 11
00:47:06.360 : en:Chapter 12
00:49:36.920 : en:Chapter 13
00:53:35.080 : en:Chapter 14
00:55:57.120 : en:Chapter 15
00:59:11.240 : en:Chapter 16
01:00:28.080 : en:Chapter 17
01:05:25.600 : en:Chapter 18
01:09:41.680 : en:Chapter 19
01:14:00.400 : en:Chapter 20
01:17:55.160 : en:Chapter 21
01:22:03.720 : en:Chapter 22
01:27:23.720 : en:Chapter 23
01:30:38.560 : en:Chapter 24
01:43:15.880 : en:Chapter 25




   Похожие торренты   Торрент   Размер 
В этой теме нет новых непрочитанных сообщений. Пыль (2005) DVDRip

7 | 1

1.37 ГБ

В этой теме нет новых непрочитанных сообщений. Пыль (2005) DVDRip

76 | 6

1.45 ГБ

В этой теме нет новых непрочитанных сообщений. Mireille Mathieu - а l'Olympia (2005) DVDRip-AVC от KORSAR

2 | 0

2.65 ГБ

В этой теме нет новых непрочитанных сообщений. Пыль (2005) DVD5

2 | 2

4.05 ГБ

В этой теме нет новых непрочитанных сообщений. Бедные родственники (2005) WEB-DL 1080p от KORSAR

16 | 0

3.96 ГБ

В этой теме нет новых непрочитанных сообщений. Безумие / Asylum (2005) WEB-DLRip 720p от KORSAR | P

0 | 0

5.78 ГБ

В этой теме нет новых непрочитанных сообщений. Серебристая пыль (1953) DVDRip

15 | 7

1.36 ГБ




Вы не можете начинать темы
Вы не можете отвечать на сообщения
Вы не можете редактировать свои сообщения
Вы не можете удалять свои сообщения
Вы не можете добавлять вложения

Перейти:  
Для Мосгорсуда, Роскомнадзора и рекламодателей: mosgorsud-torrent[собачка]yandex.ru
cron
 Вход
ppkBB3cker v.2 © 2008-2014 @ PPK
[ Time : 0.194s | 17 Queries | GZIP : Off ]

cron