img image001 image001 image001 image001 image001 image001 image001 image001 image001 image001 image001 image001 image001 image001 image001

Planets Sun Sun Sun
Статистика раздачи
Автор: Nickolas3434 | Размер: 1.09 ГБ | Добавлен: 12 янв 2018
Раздают: 45    Качают: 3
Скачать торрент
Скачать торрент
Описание торрента

СообщениеДобавлено: 12 янв 2018 


Мы "В КОНТАКТЕ"


Страна: СССР
Производство: Одесская киностудия
Жанр: детектив
Год выпуска: 1959
Продолжительность: 01:15:44
Перевод: Не требуется
Cубтитры: нет
Оригинальная аудиодорожка: русский
Режиссер: Виктор Жилин
В ролях:
Владимир Гусев, Майя Менглет, Георгий Жжёнов, Григорий Михайлов, Борис Сабуров, Леонид Чиниджанц, Зинаида Сорочинская, Павел Михайлов, Фёдор Радчук, Иван Коваль-Самборский, Ярослав Ефимов, Юрий Горобец, Саша Ерасов, Володя Куликов, Вячеслав Шибаев, Николай Засеев-Руденко, Алексей Бахарь, Владимир Евченко...
Об актёрах подробней
Описание:
Отсидев год за хулиганство в тюрьме, Андрей Коваленко возвращается на судоремонтный завод и начинает честную трудовую жизнь. Но его биография становится приманкой для вора и рецидивиста Греня, много лет орудующего в этих краях. Вскоре друзья и любимая девушка Зоя узнают, что он задержан милицией и подозревается в краже.





Источник: DVD5 R5
Качество видео: DVDRip-AVC
Формат видео: MKV
Видео: 696->746x560 (4:3), 25 fps, H264 ~ 1859 kbps avg, 0.191 bit/pixel
Аудио: 48 kHz, Dolby Digital AC3 2.0, 192 kbps
Раздача от:
Общее
Полное имя : Ispravlennomu.verit.1959.DVDRip-AVC_[New-team]_by_AVP_Studio.mkv
Формат : Matroska
Версия формата : Version 2
Размер файла : 1,09 Гбайт
Продолжительность : 1 ч. 15 м.
Общий поток : 2053 Кбит/сек
Дата кодирования : UTC 2018-01-07 17:27:27
Программа кодирования : mkvmerge v6.1.0 ('Old Devil') built on Mar 4 2013 09:10:42
Библиотека кодирования : libebml v1.3.0 + libmatroska v1.4.0
Видео
Идентификатор : 1
Формат : AVC
Формат/Информация : Advanced Video Codec
Профиль формата : [email protected]
Настройки формата : CABAC / 10 Ref Frames
Параметр CABAC формата : Да
Параметр RefFrames формата : 10 кадров
Идентификатор кодека : V_MPEG4/ISO/AVC
Продолжительность : 1 ч. 15 м.
Битрейт : 1859 Кбит/сек
Ширина : 696 пикселей
Высота : 560 пикселей
Соотношение сторон : 4:3
Режим частоты кадров : Постоянный
Частота кадров : 25,000 кадров/сек
Цветовое пространство : YUV
Субдискретизация насыщенности : 4:2:0
Битовая глубина : 8 бит
Тип развёртки : Прогрессивная
Бит/(Пиксели*Кадры) : 0.191
Размер потока : 986 Мбайт (89%)
Библиотека кодирования : x264 core 130 r2273 b3065e6
Настройки программы : cabac=1 / ref=10 / deblock=1:-2:-1 / analyse=0x3:0x113 / me=umh / subme=10 / psy=1 / psy_rd=1.00:0.00 / mixed_ref=1 / me_range=32 / chroma_me=1 / trellis=2 / 8x8dct=1 / cqm=0 / deadzone=21,11 / fast_pskip=1 / chroma_qp_offset=-2 / threads=6 / lookahead_threads=1 / sliced_threads=0 / nr=0 / decimate=0 / interlaced=0 / bluray_compat=0 / constrained_intra=0 / bframes=8 / b_pyramid=2 / b_adapt=2 / b_bias=0 / direct=3 / weightb=1 / open_gop=0 / weightp=2 / keyint=250 / keyint_min=25 / scenecut=40 / intra_refresh=0 / rc=2pass / mbtree=0 / bitrate=1859 / ratetol=1.0 / qcomp=0.60 / qpmin=0 / qpmax=69 / qpstep=4 / cplxblur=20.0 / qblur=0.5 / ip_ratio=1.40 / pb_ratio=1.30 / aq=1:1.00
Default : Да
Forced : Нет
Аудио
Идентификатор : 2
Формат : AC-3
Формат/Информация : Audio Coding 3
Идентификатор кодека : A_AC3
Продолжительность : 1 ч. 15 м.
Вид битрейта : Постоянный
Битрейт : 192 Кбит/сек
Каналы : 2 канала
Расположение каналов : Front: L R
Частота : 48,0 КГц
Частота кадров : 31,250 кадров/сек (1536 SPF)
Битовая глубина : 16 бит
Метод сжатия : С потерями
Размер потока : 104 Мбайт (9%)
Default : Да
Forced : Нет





   Похожие торренты   Торрент   Размер 
В этой теме нет новых непрочитанных сообщений. Исправленному верить (1959) DVDRip от New-Team

9 | 0

745.31 МБ

В этой теме нет новых непрочитанных сообщений. Исправленному верить (1959) DVDRip

3 | 9

851.89 МБ

В этой теме нет новых непрочитанных сообщений. Хочу верить (1965) DVDRip от New-Team

8 | 6

1.09 ГБ

В этой теме нет новых непрочитанных сообщений. Хочу верить (1965) DVDRip от New-Team

8 | 18

745.34 МБ

В этой теме нет новых непрочитанных сообщений. Хочу верить (1965) DVDRip-AVC от New-Team

32 | 6

1.09 ГБ

В этой теме нет новых непрочитанных сообщений. Секретные материалы: Хочу верить / The X-Files: I Want to Believe (2008) HDTVRip-AVC от New-Team | D

147 | 16

745.18 МБ

В этой теме нет новых непрочитанных сообщений. Жестокость (1959) DVDRip от New-Team

2 | 0

1.09 ГБ




Вы не можете начинать темы
Вы не можете отвечать на сообщения
Вы не можете редактировать свои сообщения
Вы не можете удалять свои сообщения
Вы не можете добавлять вложения

Перейти:  
Для Мосгорсуда, Роскомнадзора и рекламодателей: mosgorsud-torrent[собачка]yandex.ru
 Вход
ppkBB3cker v.2 © 2008-2014 @ PPK
[ Time : 0.065s | 18 Queries | GZIP : Off ]

cron