img image001 image001 image001 image001 image001 image001 image001 image001 image001 image001 image001 image001 image001 image001 image001

Planets Sun Sun Sun
Статистика раздачи
Автор: Nickolas3434 | Размер: 10.34 ГБ | Добавлен: 12 янв 2018
Раздают: 25    Качают: 3
Скачать торрент
Скачать торрент
Описание торрента

СообщениеДобавлено: 12 янв 2018 

Информация о фильме
Оригинальное название: Зоология
Год выпуска: 2016
Жанр: Драма, фантастика, артхаус
Выпущено: Россия, Германия, Франция, Arizona Films, MovieBrats Films & Animation, New People Film Company
Режиссер: Иван И. Твердовский
В ролях: Наталья Павленкова, Дмитрий Грошев, Ирина Чипиженко, Маша Токарева, Александр Горчилин, Нина Свиридова, Владимир Сергеев, Валентина Попова, Людмила Шестакова, Юлия Пимкина
О фильме: Наташа живет вдвоем с матерью в небольшом приморском городке. Жизнь ее скучна и размеренна. В зоопарке, где она работает, Наташа уже давно стала объектом для насмешек. Но внезапно с ней происходит странная метаморфоза - ни с того, ни с сего у нее вырастает хвост. Это дикое происшествие заставило Наталью обратиться к разного рода специалистам: гадалкам, ученым, священнослужителям. Правда, окружающие в основном потешаются над произошедшим, а то и убеждены, что в нее вселилась нечистая сила. Ей предстоит пройти через стыд, надежду и отчаяние, чтобы обрести себя. Как поведет себя в такой неординарной ситуации героиня? Смотрите и учитесь...

Качество: BDRip 1080p
Видео: MPEG-4 AVC, 14169 Кбит/с, 1920x1040, 23.976 кадр/с
Аудио: Русский (AC3, 6 ch, 640 Кбит/с), (DTS, 6 ch, 1509 Кбит/с)
Размер: 10.34 ГБ
Продолжительность: 01:30:45
Язык: Русский
Субтитры: Английские
Озвучивание - (Лицензия)
Сохранены оригинальные чаптеры как на Blu-Ray.
x264 [info]: frame I:601 Avg QP:14.94 size:242081
x264 [info]: frame P:32439 Avg QP:17.74 size:129623
x264 [info]: frame B:97525 Avg QP:19.28 size: 54210
x264 [info]: consecutive B-frames: 4.1% 5.5% 14.2% 11.3% 10.3% 48.8% 3.1% 0.4% 0.8% 0.4% 1.1%
x264 [info]: mb I I16..4: 17.9% 61.8% 20.2%
x264 [info]: mb P I16..4: 6.3% 28.6% 4.0% P16..4: 24.7% 25.5% 5.6% 0.8% 0.1% skip: 4.4%
x264 [info]: mb B I16..4: 0.8% 2.5% 0.2% B16..8: 44.0% 21.0% 2.7% direct: 8.7% skip:20.1% L0:48.5% L1:40.9% BI:10.6%
x264 [info]: 8x8 transform intra:72.5% inter:51.6%
x264 [info]: direct mvs spatial:99.4% temporal:0.6%
x264 [info]: coded y,uvDC,uvAC intra: 86.4% 89.3% 74.2% inter: 40.3% 46.3% 21.5%
x264 [info]: i16 v,h,dc,p: 19% 11% 23% 47%
x264 [info]: i8 v,h,dc,ddl,ddr,vr,hd,vl,hu: 8% 7% 12% 10% 13% 12% 13% 11% 13%
x264 [info]: i4 v,h,dc,ddl,ddr,vr,hd,vl,hu: 16% 11% 25% 6% 9% 8% 8% 6% 9%
x264 [info]: i8c dc,h,v,p: 49% 20% 16% 15%
x264 [info]: Weighted P-Frames: Y:0.9% UV:0.5%
x264 [info]: ref P L0: 57.9% 9.9% 21.2% 9.3% 1.6% 0.0%
x264 [info]: ref B L0: 88.7% 9.0% 2.3%
x264 [info]: ref B L1: 95.1% 4.9%
x264 [info]: kb/s:14157.62

Общее
Уникальный идентификатор : 196304163574997682115889581522038198009 (0x93AECE82D2A45363BD6C73D099028EF9)
Полное имя : D:ЗагрузкиZoology.2016.x264.BDRip.(1080p).OlLandGroup.mkv
Формат : Matroska
Версия формата : Version 4 / Version 2
Размер файла : 10,3 Гбайт
Продолжительность : 1 ч. 30 м.
Общий поток : 16,3 Мбит/сек
Название фильма : Зоология.2016.Сборка: ollan
Дата кодирования : UTC 2018-01-09 08:23:53
Программа кодирования : mkvmerge v6.5.0 ('Isn't she lovely') built on Oct 20 2013 12:50:05
Библиотека кодирования : libebml v1.3.0 + libmatroska v1.4.1
Attachements : Cover - Zoology.png
Видео
Идентификатор : 1
Формат : AVC
Формат/Информация : Advanced Video Codec
Профиль формата : [email protected]
Параметр CABAC формата : Да
Параметр ReFrames формата : 4 кадра
Идентификатор кодека : V_MPEG4/ISO/AVC
Продолжительность : 1 ч. 30 м.
Битрейт : 14,2 Мбит/сек
Ширина : 1920 пикселей
Высота : 1040 пикселей
Соотношение сторон : 1,85:1
Режим частоты кадров : Постоянный
Частота кадров : 23,976 (24000/1001) кадра/сек
Цветовое пространство : YUV
Субдискретизация насыщенности : 4:2:0
Битовая глубина : 8 бит
Тип развёртки : Прогрессивная
Бит/(Пиксели*Кадры) : 0.296
Размер потока : 8,77 Гбайт (85%)
Библиотека кодирования : x264 core 146 r2538 121396c
Настройки программы : cabac=1 / ref=4 / deblock=1:-2:-3 / analyse=0x3:0x133 / me=umh / subme=11 / psy=1 / psy_rd=0.95:0.10 / mixed_ref=1 / me_range=64 / chroma_me=1 / trellis=2 / 8x8dct=1 / cqm=0 / deadzone=21,11 / fast_pskip=0 / chroma_qp_offset=-3 / threads=12 / lookahead_threads=3 / sliced_threads=0 / nr=0 / decimate=0 / interlaced=0 / bluray_compat=0 / constrained_intra=0 / bframes=10 / b_pyramid=2 / b_adapt=2 / b_bias=0 / direct=3 / weightb=1 / open_gop=0 / weightp=2 / keyint=240 / keyint_min=23 / scenecut=40 / intra_refresh=0 / rc_lookahead=40 / rc=2pass / mbtree=0 / bitrate=14169 / ratetol=1.0 / qcomp=0.60 / qpmin=0 / qpmax=69 / qpstep=4 / cplxblur=20.0 / qblur=0.5 / vbv_maxrate=50000 / vbv_bufsize=62500 / nal_hrd=none / filler=0 / ip_ratio=1.40 / pb_ratio=1.30 / aq=1:1.00
Язык : Russian
Default : Да
Forced : Нет
Аудио #1
Идентификатор : 2
Формат : AC-3
Формат/Информация : Audio Coding 3
Расширение режима : CM (complete main)
Параметр Endianness формата : Big
Идентификатор кодека : A_AC3
Продолжительность : 1 ч. 30 м.
Вид битрейта : Постоянный
Битрейт : 640 Кбит/сек
Каналы : 6 каналов
Расположение каналов : Front: L C R, Side: L R, LFE
Частота : 48,0 КГц
Частота кадров : 31,250 кадров/сек (1536 spf)
Метод сжатия : С потерями
Размер потока : 415 Мбайт (4%)
Заголовок : Лицензия
Язык : Russian
Default : Да
Forced : Нет
Аудио #2
Идентификатор : 3
Формат : DTS
Формат/Информация : Digital Theater Systems
Режим : 16
Параметр Endianness формата : Big
Идентификатор кодека : A_DTS
Продолжительность : 1 ч. 30 м.
Вид битрейта : Постоянный
Битрейт : 1509 Кбит/сек
Каналы : 6 каналов
Расположение каналов : Front: L C R, Side: L R, LFE
Частота : 48,0 КГц
Частота кадров : 93,750 кадра/сек (512 spf)
Битовая глубина : 16 бит
Метод сжатия : С потерями
Размер потока : 980 Мбайт (9%)
Заголовок : Лицензия
Язык : Russian
Default : Нет
Forced : Нет
Текст
Идентификатор : 4
Формат : UTF-8
Идентификатор кодека : S_TEXT/UTF8
Идентификатор кодека/Информация : UTF-8 Plain Text
Заголовок : Full
Язык : English
Default : Нет
Forced : Нет
Меню
00:00:00.000 : ru:Chapter 01
00:07:39.834 : ru:Chapter 02
00:15:56.538 : ru:Chapter 03
00:23:47.843 : ru:Chapter 04
00:31:48.573 : ru:Chapter 05
00:39:57.937 : ru:Chapter 06
00:49:43.230 : ru:Chapter 07
00:54:44.281 : ru:Chapter 08
01:02:59.358 : ru:Chapter 09
01:09:59.695 : ru:Chapter 10
01:20:20.774 : ru:Chapter 11
01:27:08.973 : ru:Chapter 12
01:30:45.606 : ru:Chapter 13





Релиз от: Rip by:



   Похожие торренты   Торрент   Размер 
В этой теме нет новых непрочитанных сообщений. Зоология (2016) BDRemux 1080p от OlLanDGroup | Лицензия

3 | 1

20.08 ГБ

В этой теме нет новых непрочитанных сообщений. Зоология (2016) Blu-ray 1080p | GBR Transfer | Лицензия

8 | 2

28.3 ГБ

В этой теме нет новых непрочитанных сообщений. Зоология (2016) BDRip-AVC от ExKinoRay | Лицензия

31 | 5

1.76 ГБ

В этой теме нет новых непрочитанных сообщений. Зоология (2016) BDRip 720p от ExKinoRay | Лицензия

43 | 6

4.53 ГБ

В этой теме нет новых непрочитанных сообщений. Бен-Гур / Ben-Hur (2016) BDRip 1080p от OlLanDGroup | US Transfer | Лицензия

96 | 11

8.4 ГБ

В этой теме нет новых непрочитанных сообщений. 28 панфиловцев (2016) BDRip 1080p от OlLanDGroup | Лицензия

84 | 0

9.12 ГБ

В этой теме нет новых непрочитанных сообщений. Преступник / Criminal (2016) BDRip 1080p от OlLanDGroup | Лицензия

65 | 10

9.72 ГБ




Вы не можете начинать темы
Вы не можете отвечать на сообщения
Вы не можете редактировать свои сообщения
Вы не можете удалять свои сообщения
Вы не можете добавлять вложения

Перейти:  
Для Мосгорсуда, Роскомнадзора и рекламодателей: mosgorsud-torrent[собачка]yandex.ru
 Вход
ppkBB3cker v.2 © 2008-2014 @ PPK
[ Time : 0.050s | 17 Queries | GZIP : Off ]

cron