img image001 image001 image001 image001 image001 image001 image001 image001 image001 image001 image001 image001 image001 image001 image001

Planets Sun Sun Sun
Статистика раздачи
Автор: Nickolas3434 | Размер: 1.09 ГБ | Добавлен: 12 янв 2018
Раздают: 2    Качают: 0
Скачать торрент
Скачать торрент
Описание торрента

СообщениеДобавлено: 12 янв 2018 


Мы "В КОНТАКТЕ"


Страна: СССР
Производство: Свердловская киностудия
Жанр: драма, приключения
Год выпуска: 1959
Продолжительность: 01:25:40
Перевод: Не требуется
Cубтитры: нет
Оригинальная аудиодорожка: русский
Режиссер: Анатолий Дудоров
В ролях:
Павел Шпрингфельд, Анатолий Торопов, Владимир Курков, Ия Арепина, Константин Барташевич, Назиб Гайнуллин, Раднэр Муратов, Александр Гречаный...
Об актёрах подробней
Описание:
Все дальше на север Урала увозит поезд группу геологов. У окна вагона стоят Наташа (Ия Арепина) и Николай. Ниташе так хочется отправиться вместе с любимым на Вангур, где по расчётам должны быть залежи ценных титановых руд. Но девушке придётся работать с основной группой на горе Ключ-камень. А в долину Вангура пойдёт группа из трёх человек во главе с доцентом Борисом Пушкарёвым (Павел Шпрингфельд).





Источник: DVD5 R5
Качество видео: DVDRip
Формат видео: AVI
Видео: 672x496 (4:3), 25 fps, XviD ~ 1617 kbps avg, 0.194 bit/pixel
Аудио: 48 kHz, Dolby Digital AC3 2.0, 192 kbps
Раздача от:
Общее
Полное имя : Hmuryy.Vangur.1959.DVDRip_[New-team]_by_AVP_Studio.avi
Формат : AVI
Формат/Информация : Audio Video Interleave
Размер файла : 1,09 Гбайт
Продолжительность : 1 ч. 25 м.
Общий поток : 1819 Кбит/сек
Программа кодирования : VirtualDubMod 1.5.10.3 | www.virtualdub-fr.org || (build 2550/release)
Библиотека кодирования : VirtualDubMod build 2550/release
Видео
Идентификатор : 0
Формат : MPEG-4 Visual
Профиль формата : Advanced [email protected]
Настройки формата : BVOP1 / Custom Matrix
Параметр BVOP формата : 1
Параметр QPel формата : Нет
Параметр GMC формата : Без точки перехода
Параметр матрицы формата : Выборочная
Идентификатор кодека : XVID
Идентификатор кодека/Подсказка : XviD
Продолжительность : 1 ч. 25 м.
Битрейт : 1617 Кбит/сек
Ширина : 672 пикселя
Высота : 496 пикселей
Соотношение сторон : 4:3
Частота кадров : 25,000 кадров/сек
Цветовое пространство : YUV
Субдискретизация насыщенности : 4:2:0
Битовая глубина : 8 бит
Тип развёртки : Прогрессивная
Метод сжатия : С потерями
Бит/(Пиксели*Кадры) : 0.194
Размер потока : 991 Мбайт (89%)
Библиотека кодирования : XviD 73
Аудио
Идентификатор : 1
Формат : AC-3
Формат/Информация : Audio Coding 3
Идентификатор кодека : 2000
Продолжительность : 1 ч. 25 м.
Вид битрейта : Постоянный
Битрейт : 192 Кбит/сек
Каналы : 2 канала
Расположение каналов : Front: L R
Частота : 48,0 КГц
Частота кадров : 31,250 кадров/сек (1536 SPF)
Битовая глубина : 16 бит
Метод сжатия : С потерями
Размер потока : 118 Мбайт (11%)
Выравнивание : Разделение по промежуткам
Продолжительность промежутка : 40 мс. (1,00 видеокадр)
Время предзагрузки промежутка : 500 мс





   Похожие торренты   Торрент   Размер 
В этой теме нет новых непрочитанных сообщений. Хмурый Вангур (1959) DVDRip-AVC от New-Team

19 | 0

1.09 ГБ

В этой теме нет новых непрочитанных сообщений. Хмурый Вангур (1959) DVDRip от New-Team

18 | 0

744.71 МБ

В этой теме нет новых непрочитанных сообщений. Хмурый Вангур (1960) DVDRip

8 | 26

1.37 ГБ

В этой теме нет новых непрочитанных сообщений. Таврия (1959) DVDRip-AVC от New-Team

10 | 0

1.09 ГБ

В этой теме нет новых непрочитанных сообщений. Накануне (1959) DVDRip от New-Team

11 | 0

1.09 ГБ

В этой теме нет новых непрочитанных сообщений. Шинель (1959) DVDRip от New-Team

23 | 0

1.09 ГБ

В этой теме нет новых непрочитанных сообщений. Шинель (1959) DVDRip от New-Team

3 | 0

745.39 МБ




Вы не можете начинать темы
Вы не можете отвечать на сообщения
Вы не можете редактировать свои сообщения
Вы не можете удалять свои сообщения
Вы не можете добавлять вложения

Перейти:  
Для Мосгорсуда, Роскомнадзора и рекламодателей: mosgorsud-torrent[собачка]yandex.ru
 Вход
ppkBB3cker v.2 © 2008-2014 @ PPK
[ Time : 0.060s | 18 Queries | GZIP : Off ]

cron