img image001 image001 image001 image001 image001 image001 image001 image001 image001 image001 image001 image001 image001 image001 image001

Planets Sun Sun Sun
Статистика раздачи
Автор: Nickolas3434 | Размер: 1.36 ГБ | Добавлен: 06 янв 2018
Раздают: 32    Качают: 0
Скачать торрент
Скачать торрент
Описание торрента

СообщениеДобавлено: 06 янв 2018 

Информация о фильме
Название: Нога
Год выхода: 1991
Жанр: боевик, драма, военный
Режиссер: Никита Тягунов
В ролях: Иван Охлобыстин, Петр Мамонов, Иван Захава, Наталья Петрова, Фархад Махмудов, Людмила Ларионова, Шерали Абдулкайсов, Оксана Мысина, М. Айнетдинова, Дмитрий Андрианов
О фильме: Герой фильма Валера — веселый парень из Москвы, который в свои 19 лет познал весь ад афганской войны, на которой он потерял ногу. Вернувшись с войны, он и не подозревал, что настоящий кошмар для него только начинается…

Страна: СССР
Студия: 12А
Продолжительность: 01:28:21
Файл
Кодек: х264
Качество: DVDRip-AVC
Видео: MPEG-4 AVC, [email protected], 25 fps, 2000 Кбит/с
Звук: AC3, 2 ch, 192 Кбит/с


x264 [info]: frame I:709 Avg QP:15.30 size: 72051
x264 [info]: frame P:29685 Avg QP:18.17 size: 26817
x264 [info]: frame B:102413 Avg QP:20.31 size: 4693
=============================================================================
Общее
Уникальный идентификатор : 223075689723325850553827332900145327480 (0xA7D2D0A87275D157B526CFFA4B6BED78)
Полное имя : D:Нога_1991-DVDRip-AVC.mkv
Формат : Matroska
Версия формата : Version 2
Размер файла : 1,36 Гбайт
Продолжительность : 1 ч. 28 м.
Общий поток : 2193 Кбит/сек
Дата кодирования : UTC 2017-03-16 20:33:58
Программа кодирования : mkvmerge v5.8.0 ('No Sleep / Pillow') built on Sep 2 2012 15:37:04
Библиотека кодирования : libebml v1.2.3 + libmatroska v1.3.0
Видео
Идентификатор : 1
Формат : AVC
Формат/Информация : Advanced Video Codec
Профиль формата : [email protected]
Параметр CABAC формата : Да
Параметр ReFrames формата : 15 кадров
Идентификатор кодека : V_MPEG4/ISO/AVC
Продолжительность : 1 ч. 28 м.
Битрейт : 2000 Кбит/сек
Ширина : 694 пикселя
Высота : 572 пикселя
Соотношение сторон : 4:3
Режим частоты кадров : Постоянный
Частота кадров : 25,000 кадров/сек
Цветовое пространство : YUV
Субдискретизация насыщенности : 4:2:0
Битовая глубина : 8 бит
Тип развёртки : Прогрессивная
Бит/(Пиксели*Кадры) : 0.202
Размер потока : 1,21 Гбайт (89%)
Заголовок : korsar.tv
Библиотека кодирования : x264 core 148 r2744kMod b97ae06
Настройки программы : cabac=1 / ref=15 / deblock=1:-2:-2 / analyse=0x3:0x133 / me=umh / subme=10 / psy=1 / fade_compensate=0.00 / psy_rd=1.05:0.10 / mixed_ref=1 / me_range=32 / chroma_me=1 / trellis=2 / 8x8dct=1 / cqm=0 / deadzone=21,11 / fast_pskip=0 / chroma_qp_offset=-3 / threads=12 / lookahead_threads=3 / sliced_threads=0 / nr=0 / decimate=0 / interlaced=0 / bluray_compat=0 / constrained_intra=0 / bframes=10 / b_pyramid=2 / b_adapt=2 / b_bias=0 / direct=3 / weightb=1 / open_gop=0 / weightp=2 / keyint=250 / keyint_min=25 / scenecut=40 / intra_refresh=0 / rc=2pass / mbtree=0 / bitrate=2000 / ratetol=1.0 / qcomp=0.63 / qpmin=0 / qpmax=39 / qpstep=4 / cplxblur=20.0 / qblur=0.5 / ip_ratio=1.25 / pb_ratio=1.30 / aq=2:1.00
Язык : English
Default : Да
Forced : Нет
Цветовой диапазон : Limited
Основные цвета : BT.601 PAL
Характеристики трансфера : BT.470 System B, BT.470 System G
Коэффициенты матрицы : BT.601
Аудио
Идентификатор : 2
Формат : AC-3
Формат/Информация : Audio Coding 3
Расширение режима : CM (complete main)
Параметр Endianness формата : Big
Идентификатор кодека : A_AC3
Продолжительность : 1 ч. 28 м.
Вид битрейта : Постоянный
Битрейт : 192 Кбит/сек
Каналы : 2 канала
Расположение каналов : Front: L R
Частота : 48,0 КГц
Частота кадров : 31,250 кадров/сек (1536 spf)
Битовая глубина : 16 бит
Метод сжатия : С потерями
Размер потока : 122 Мбайт (9%)
Язык : Russian
Default : Да
Forced : Нет




   Похожие торренты   Торрент   Размер 
В этой теме нет новых непрочитанных сообщений. Нога (1991) DVDRip

15 | 1

742.71 МБ

В этой теме нет новых непрочитанных сообщений. Нога (1991) DVDRip от KinoZalSat

49 | 6

1.37 ГБ

В этой теме нет новых непрочитанных сообщений. Нога (1991) DVD5

3 | 3

4.07 ГБ

В этой теме нет новых непрочитанных сообщений. Армавир (1991) DVDRip-AVC от KORSAR

14 | 1

2.46 ГБ

В этой теме нет новых непрочитанных сообщений. Небеса обетованные (1991) WEB-DLRip 720p от KORSAR

0 | 0

5.98 ГБ

В этой теме нет новых непрочитанных сообщений. Доктор Голливуд / Doc Hollywood (1991) WEB-DLRip 720p от KORSAR | D, P, A

5 | 1

4.78 ГБ

В этой теме нет новых непрочитанных сообщений. Правосудие, моя нога! / Justice,My Foot! (1992) DVDRip от Torrent-Xzona | L1

1 | 3

1.37 ГБ




Вы не можете начинать темы
Вы не можете отвечать на сообщения
Вы не можете редактировать свои сообщения
Вы не можете удалять свои сообщения
Вы не можете добавлять вложения

Перейти:  
Для Мосгорсуда, Роскомнадзора и рекламодателей: mosgorsud-torrent[собачка]yandex.ru
 Вход
ppkBB3cker v.2 © 2008-2014 @ PPK
[ Time : 0.044s | 18 Queries | GZIP : Off ]

cron