img image001 image001 image001 image001 image001 image001 image001 image001 image001 image001 image001 image001 image001 image001 image001

Planets Sun Sun Sun
Статистика раздачи
Автор: Nickolas3434 | Размер: 2.17 ГБ | Добавлен: 01 янв 2018
Раздают: 22    Качают: 1
Скачать торрент
Скачать торрент
Описание торрента

СообщениеДобавлено: 01 янв 2018 

Информация о фильме
Название: Зеркало для героя
Год выхода: 1987
Жанр: Фантастика, фэнтези
Режиссёр: Владимир Хотиненко
В ролях: Иван Бортник, Сергей Колтаков, Борис Галкин, Наталья Акимова, Феликс Степун, Елена Гольянова, Яков Степанов, Виктор Смирнов, Николай Стоцкий, Сергей Паршин
О фильме: Двое случайных знакомых, Сергей Пшеничный и Андрей Немчинов, волею загадочных обстоятельств переносятся почти на 40 лет назад. Этот день — 8 мая 1949 года — начинает повторяться для них с неумолимым постоянством. Каждому из героев судьба дает свой шанс: Андрей может предотвратить гибель людей в обветшавшей шахте, Сергей — по-новому взглянуть на своих родителей и понять их...

Страна: СССР
Студия: Свердловская киностудия
Продолжительность: 02:11:24
Перевод: Не требуется (оригинальный)
Файл
Формат: avi
Качество: DVDRip (DVD9)
Видео: XviD, 688х464, 25fps, 2165kbps
Аудио: MPEG Layer 3, 2ch, 48000Hz, 192kbps

Общее
Полное имя : Zerkalo.Dla.Geroa.1987.O.DVDRip.2100.CurHaJI.avi
Формат : AVI
Формат/Информация : Audio Video Interleave
Профиль формата : OpenDML
Размер файла : 2,17 Гбайт
Продолжительность : 2 ч. 11 м.
Общий поток : 2369 Кбит/сек
Название фильма : Zerkalo.Dla.Geroa.1987.O.DVDRip.2100.CurHaJI
Программа кодирования : VirtualDubMod 1.5.10.3 | www.virtualdub-fr.org || (build 2550/release)
Библиотека кодирования : VirtualDub build 35491/release
Видео
Идентификатор : 0
Формат : MPEG-4 Visual
Профиль формата : Advanced [email protected]
Параметр BVOP формата : 1
Параметр QPel формата : Нет
Параметр GMC формата : Без точки перехода
Параметр матрицы формата : Выборочная
Идентификатор кодека : XVID
Идентификатор кодека/Подсказка : XviD
Продолжительность : 2 ч. 11 м.
Битрейт : 2165 Кбит/сек
Ширина : 688 пикселей
Высота : 464 пикселя
Соотношение сторон : 3:2
Частота кадров : 25,000 кадров/сек
Цветовое пространство : YUV
Субдискретизация насыщенности : 4:2:0
Битовая глубина : 8 бит
Тип развёртки : Прогрессивная
Метод сжатия : С потерями
Бит/(Пиксели*Кадры) : 0.271
Размер потока : 1,99 Гбайт (91%)
Библиотека кодирования : XviD 73
Аудио
Идентификатор : 1
Формат : MPEG Audio
Версия формата : Version 1
Профиль формата : Layer 3
Идентификатор кодека : 55
Идентификатор кодека/Подсказка : MP3
Продолжительность : 2 ч. 11 м.
Вид битрейта : Постоянный
Битрейт : 192 Кбит/сек
Каналы : 2 канала
Частота : 48,0 КГц
Метод сжатия : С потерями
Размер потока : 180 Мбайт (8%)
Выравнивание : Соединение по промежуткам
Продолжительность промежутка : 40 мс. (1,00 видеокадр)
Время предзагрузки промежутка : 504 мс.
Библиотека кодирования : LAME3.99r
Настройки программы : -m s -V 4 -q 2 -lowpass 18.6 -b 192


Релиз от:



   Похожие торренты   Торрент   Размер 
В этой теме нет новых непрочитанных сообщений. Зеркало для героя (1987) DVDRip от Youtracker

281 | 13

1.46 ГБ

В этой теме нет новых непрочитанных сообщений. Руставели - Зеркало для героя (2017) MP3

150 | 12

77.42 МБ

В этой теме нет новых непрочитанных сообщений. Зеркало для героя [01-19] + Гала-шоу с Оксаной Пушкиной (2016) SATRip от Files-x

0 | 0

15.51 ГБ

В этой теме нет новых непрочитанных сообщений. Зеркало для героя [01-11] + Гала-шоу с Оксаной Пушкиной (2016) SATRip от Files-x

8 | 3

10 ГБ

В этой теме нет новых непрочитанных сообщений. Зеркало для героя (Гала-шоу с Оксаной Пушкиной) (2016) SATRip от Files-x

4 | 16

3.55 ГБ

В этой теме нет новых непрочитанных сообщений. Зеркало для героя [01-27] + Гала-шоу с Оксаной Пушкиной (2016) SATRip от Files-x

0 | 0

20.97 ГБ

В этой теме нет новых непрочитанных сообщений. Зеркало для героя [01-21] + Гала-шоу с Оксаной Пушкиной (2016) SATRip от Files-x

0 | 0

16.9 ГБ




Вы не можете начинать темы
Вы не можете отвечать на сообщения
Вы не можете редактировать свои сообщения
Вы не можете удалять свои сообщения
Вы не можете добавлять вложения

Перейти:  
Для Мосгорсуда, Роскомнадзора и рекламодателей: mosgorsud-torrent[собачка]yandex.ru
 Вход
ppkBB3cker v.2 © 2008-2014 @ PPK
[ Time : 0.042s | 19 Queries | GZIP : Off ]

cron