img image001 image001 image001 image001 image001 image001 image001 image001 image001 image001 image001 image001 image001 image001 image001

Planets Sun Sun Sun
Статистика раздачи
Автор: Nickolas3434 | Размер: 17.98 ГБ | Добавлен: 12 янв 2018
Раздают: 10    Качают: 11
Скачать торрент
Скачать торрент
Описание торрента

СообщениеДобавлено: 12 янв 2018 

Название: Точка невозврата / Убийца
Оригинальное название: Point of No Return
Год выхода: 1993
Жанр: Боевик, триллер, криминал
Режиссер: Джон Бэдэм
В ролях: Бриджет Фонда, Гэбриэл Бирн, Дермот Малруни, Харви Кейтель, Мигель Феррер, Энн Бэнкрофт, Оливия д’Або, Ричард Романус, Лоррейн Туссен


О фильме:
Жестокая, напичканная наркотиками, она была обвинена в убийстве и приговорена к смерти. Но секретная государственная служба превратила эту женщину из обитательницы камеры смертников в убийцу-профессионала, живущего взаймы…





Страна: США
Студия: Warner Bros. Pictures
Продолжительность: 01:48:20
Перевод: Профессиональный (дублированный), авторский (одноголосый)
Субтитры: Русские, английские


Формат: MKV
Качество: BDRemux 1080p
Видео: VC-1 Video / 18.3 Мbps / 1920x1080 / 23.976 fps
Звук:
Аудио 1: Russian: Dolby Digital Audio, 5.1, 448 kbps - Дубляж
Аудио 2: Russian: DTS Audio, 5.1, 1536 kbps - Авторский (Гаврилов)
Аудио 3: Ukrainian: DTS Audio, 5.1, 1536 kbps - Многоголосый (Новый Канал)
Аудио 4: English: DTS Audio, 5.1, 1536 kbps - Оригинал
Format : Matroska
Format version : Version 2
File size : 18.0 GiB
Duration : 1 h 48 min
Overall bit rate : 23.8 Mb/s
Movie name : Point of No Return (1993) BDRemux
Encoded date : UTC 2018-01-09 15:24:32
Writing application : mkvmerge v4.9.1 ('Ich will') сборка от Jul 11 2011 23:53:15
Writing library : libebml v1.2.1 + libmatroska v1.1.1
Video
ID : 1
Format : VC-1
Format profile : [email protected]
Codec ID : V_MS/VFW/FOURCC / WVC1
Codec ID/Hint : Microsoft
Duration : 1 h 48 min
Bit rate : 18.3 Mb/s
Width : 1 920 pixels
Height : 1 080 pixels
Display aspect ratio : 16:9
Frame rate mode : Constant
Frame rate : 23.976 (24000/1001) FPS
Color space : YUV
Chroma subsampling : 4:2:0
Bit depth : 8 bits
Scan type : Progressive
Compression mode : Lossy
Bits/(Pixel*Frame) : 0.368
Stream size : 13.9 GiB (77%)
Title : Возврата нет
Language : English
Default : Yes
Forced : No
Audio #1
ID : 2
Format : AC-3
Format/Info : Audio Coding 3
Format settings, Endianness : Big
Codec ID : A_AC3
Duration : 1 h 48 min
Bit rate mode : Constant
Bit rate : 448 kb/s
Channel(s) : 6 channels
Channel positions : Front: L C R, Side: L R, LFE
Sampling rate : 48.0 kHz
Frame rate : 31.250 FPS (1536 SPF)
Bit depth : 16 bits
Compression mode : Lossy
Stream size : 347 MiB (2%)
Title : Дубляж | Лицензия
Language : Russian
Service kind : Complete Main
Default : Yes
Forced : No
Audio #2
ID : 3
Format : DTS
Format/Info : Digital Theater Systems
Mode : 16
Format settings, Endianness : Big
Codec ID : A_DTS
Duration : 1 h 48 min
Bit rate mode : Constant
Bit rate : 1 509 kb/s
Channel(s) : 6 channels
Channel positions : Front: L C R, Side: L R, LFE
Sampling rate : 48.0 kHz
Frame rate : 93.750 FPS (512 SPF)
Bit depth : 16 bits
Compression mode : Lossy
Stream size : 1.14 GiB (6%)
Title : Гаврилов
Language : Russian
Default : No
Forced : No
Audio #3
ID : 4
Format : DTS
Format/Info : Digital Theater Systems
Mode : 16
Format settings, Endianness : Big
Codec ID : A_DTS
Duration : 1 h 48 min
Bit rate mode : Constant
Bit rate : 1 509 kb/s
Channel(s) : 6 channels
Channel positions : Front: L C R, Side: L R, LFE
Sampling rate : 48.0 kHz
Frame rate : 93.750 FPS (512 SPF)
Bit depth : 16 bits
Compression mode : Lossy
Stream size : 1.14 GiB (6%)
Title : Новый Канал
Language : Ukrainian
Default : No
Forced : No
Audio #4
ID : 5
Format : DTS
Format/Info : Digital Theater Systems
Mode : 16
Format settings, Endianness : Big
Codec ID : A_DTS
Duration : 1 h 48 min
Bit rate mode : Constant
Bit rate : 1 510 kb/s
Channel(s) : 6 channels
Channel positions : Front: L C R, Side: L R, LFE
Sampling rate : 48.0 kHz
Frame rate : 93.750 FPS (512 SPF)
Bit depth : 24 bits
Compression mode : Lossy
Stream size : 1.14 GiB (6%)
Title : Оригинал
Language : English
Default : No
Forced : No
Text #1
ID : 6
Format : UTF-8
Codec ID : S_TEXT/UTF8
Codec ID/Info : UTF-8 Plain Text
Language : Russian
Default : No
Forced : No
Text #2
ID : 7
Format : UTF-8
Codec ID : S_TEXT/UTF8
Codec ID/Info : UTF-8 Plain Text
Language : English
Default : No
Forced : No
Menu
00:00:00.000 : :Chapter 1
00:05:29.203 : :Chapter 2
00:08:33.846 : :Chapter 3
00:12:25.077 : :Chapter 4
00:16:06.924 : :Chapter 5
00:17:54.656 : :Chapter 6
00:21:55.689 : :Chapter 7
00:26:57.949 : :Chapter 8
00:29:32.270 : :Chapter 9
00:32:17.852 : :Chapter 10
00:39:53.265 : :Chapter 11
00:42:29.880 : :Chapter 12
00:47:20.003 : :Chapter 13
00:50:42.789 : :Chapter 14
00:53:55.357 : :Chapter 15
00:55:33.330 : :Chapter 16
00:59:54.173 : :Chapter 17
01:01:48.371 : :Chapter 18
01:05:42.897 : :Chapter 19
01:09:17.778 : :Chapter 20
01:16:18.907 : :Chapter 21
01:19:22.048 : :Chapter 22
01:21:55.869 : :Chapter 23
01:24:41.076 : :Chapter 24
01:27:47.303 : :Chapter 25
01:30:10.196 : :Chapter 26
01:35:18.587 : :Chapter 27
01:39:25.376 : :Chapter 28
01:42:53.876 : :Chapter 29
01:44:51.368 : :Chapter 30
01:48:20.118 : :Chapter 31




   Похожие торренты   Торрент   Размер 
В этой теме нет новых непрочитанных сообщений. Убийца / Точка невозврата / Point of No Return / The Assassin (1993) BDRemux 1080p

1 | 6

22.21 ГБ

В этой теме нет новых непрочитанных сообщений. Точка невозврата / Убийца / Point of No Return (1993) BDRip 1080p | D, A

20 | 8

13.84 ГБ

В этой теме нет новых непрочитанных сообщений. Убийца / Точка невозврата / Point of No Return (1993) BDRip | P

17 | 2

1.46 ГБ

В этой теме нет новых непрочитанных сообщений. Убийца / Точка невозврата / Point of No Return (1993) BDRip-AVC | D

8 | 0

2.18 ГБ

В этой теме нет новых непрочитанных сообщений. Убийца / Точка невозврата / Point of No Return (1993) BDRip-AVC | D, A

28 | 10

3.57 ГБ

В этой теме нет новых непрочитанных сообщений. Точка невозврата [Убийца] / Point of No Return (1993) BDRip от HQ-VIDEO

4 | 7

2.18 ГБ

В этой теме нет новых непрочитанных сообщений. Убийца / Точка невозврата / Point of No Return (1993) BDRip 720p

2 | 3

3.4 ГБ




Вы не можете начинать темы
Вы не можете отвечать на сообщения
Вы не можете редактировать свои сообщения
Вы не можете удалять свои сообщения
Вы не можете добавлять вложения

Перейти:  
Для Мосгорсуда, Роскомнадзора и рекламодателей: mosgorsud-torrent[собачка]yandex.ru
 Вход
ppkBB3cker v.2 © 2008-2014 @ PPK
[ Time : 0.058s | 19 Queries | GZIP : Off ]

cron