img image001 image001 image001 image001 image001 image001 image001 image001 image001 image001 image001 image001 image001 image001 image001

Planets Sun Sun Sun
Статистика раздачи
Автор: Nickolas3434 | Размер: 5.76 ГБ | Добавлен: 12 янв 2018
Раздают: 17    Качают: 3
Скачать торрент
Скачать торрент
Описание торрента

СообщениеДобавлено: 12 янв 2018 

Информация о фильме
Русское название: Дюнкерк
Оригинальное название: Dunkirk
Год выхода: 1958
Жанр: драма, военный, история
Режиссер: Лесли Норман
Выпущено: Великобритания, США
Продолжительность: 02:15:19
Перевод: Любительский (одноголосый закадровый)
В ролях: Джон Миллз, Роберт Эркарт, Рэй Джексон, Мередит Эдвардс, Энтони Николлс, Бернард Ли, Майкл Шилло, Ричард Аттенборо, Шон Баррет, Виктор Маддерн
Описание:
Беззаботный британский капрал, находящийся во Франции, узнаёт, что он оказался ответственным за жизни своих людей после гибели офицера. И он должен найти способ вернуть их в Англию. Тем временем британские гражданские лица оказываются втянутыми в операцию «Динамо», целью которой была эвакуация французских и британских войск с побережья Дюнкерка.
Файл
Качество: BDRip 720p (исходник Blu-Ray Disc Remux 1080p)
Контейнер: MKV (расширение файла)
Видео: 1194x720, 5705 Кбит/сек, 24,000 кадр/сек, AVC, x264, [email protected], 5:3, 0.277 Бит/[Пиксели*Кадры]
Аудио 1: AC-3, 192 Кбит/сек, 2 канала(ов), 48,0 КГц - Одноголосый закадровый, А. Багичев / Русский
Аудио 2: AC-3, 192 Кбит/сек, 2 канала(ов), 48,0 КГц - Оригинал / Английский
Субтитры: Английские | Полные | SDH
Форсированные субтитры: Нет
Чаптеры (Главы): Есть

Автор Рипа: Группа:


Format : Matroska
Format version : Version 2
File size : 5.76 GiB
Duration : 2 h 15 min
Overall bit rate : 6 091 kb/s
Movie name : Dunkirk.(1958).BDRip.720p.[envy]
Encoded date : UTC 2018-01-06 17:34:21
Writing application : mkvmerge v5.8.0 ('No Sleep / Pillow') built on Sep 2 2012 15:37:04
Writing library : libebml v1.2.3 + libmatroska v1.3.0
Video
ID : 1
Format : AVC
Format/Info : Advanced Video Codec
Format profile : [email protected]
Format settings : CABAC / 9 Ref Frames
Format settings, CABAC : Yes
Format settings, ReFrames : 9 frames
Codec ID : V_MPEG4/ISO/AVC
Duration : 2 h 15 min
Bit rate : 5 705 kb/s
Width : 1 194 pixels
Height : 720 pixels
Display aspect ratio : 5:3
Frame rate mode : Constant
Frame rate : 24.000 FPS
Color space : YUV
Chroma subsampling : 4:2:0
Bit depth : 8 bits
Scan type : Progressive
Bits/(Pixel*Frame) : 0.277
Stream size : 5.28 GiB (92%)
Title : Dunkirk.(1958).BDRip.720p.[envy]
Writing library : x264 core 152 r2851 ba24899
Encoding settings : cabac=1 / ref=9 / deblock=1:-3:-3 / analyse=0x3:0x113 / me=umh / subme=11 / psy=1 / psy_rd=1.00:0.09 / mixed_ref=1 / me_range=32 / chroma_me=1 / trellis=2 / 8x8dct=1 / cqm=0 / deadzone=21,11 / fast_pskip=0 / chroma_qp_offset=-3 / threads=12 / lookahead_threads=1 / sliced_threads=0 / nr=0 / decimate=1 / interlaced=0 / bluray_compat=0 / constrained_intra=0 / bframes=5 / b_pyramid=2 / b_adapt=2 / b_bias=0 / direct=3 / weightb=1 / open_gop=0 / weightp=2 / keyint=240 / keyint_min=24 / scenecut=40 / intra_refresh=0 / rc=2pass / mbtree=0 / bitrate=5705 / ratetol=1.0 / qcomp=0.60 / qpmin=0 / qpmax=69 / qpstep=4 / cplxblur=20.0 / qblur=0.5 / ip_ratio=1.40 / pb_ratio=1.30 / aq=1:0.60
Language : English
Default : Yes
Forced : No
Audio #1
ID : 2
Format : AC-3
Format/Info : Audio Coding 3
Codec ID : A_AC3
Duration : 2 h 15 min
Bit rate mode : Constant
Bit rate : 192 kb/s
Channel(s) : 2 channels
Channel positions : Front: L R
Sampling rate : 48.0 kHz
Frame rate : 31.250 FPS (1536 SPF)
Bit depth : 16 bits
Compression mode : Lossy
Stream size : 186 MiB (3%)
Title : VO А. Багичев
Language : Russian
Service kind : Complete Main
Default : Yes
Forced : No
Audio #2
ID : 3
Format : AC-3
Format/Info : Audio Coding 3
Codec ID : A_AC3
Duration : 2 h 15 min
Bit rate mode : Constant
Bit rate : 192 kb/s
Channel(s) : 2 channels
Channel positions : Front: L R
Sampling rate : 48.0 kHz
Frame rate : 31.250 FPS (1536 SPF)
Bit depth : 16 bits
Compression mode : Lossy
Stream size : 186 MiB (3%)
Title : Eng
Language : English
Service kind : Complete Main
Default : No
Forced : No
Text
ID : 4
Format : UTF-8
Codec ID : S_TEXT/UTF8
Codec ID/Info : UTF-8 Plain Text
Title : Eng full SDH
Language : English
Default : No
Forced : No
Menu
00:00:00.000 : :Глава 01
00:12:36.791 : :Глава 02
00:26:08.791 : :Глава 03
00:39:11.750 : :Глава 04
00:48:24.333 : :Глава 05
01:00:20.500 : :Глава 06
01:10:28.666 : :Глава 07
01:18:23.500 : :Глава 08
01:30:26.083 : :Глава 09
01:44:19.333 : :Глава 10
01:57:00.208 : :Глава 11
02:12:04.000 : :Глава 12



   Похожие торренты   Торрент   Размер 
В этой теме нет новых непрочитанных сообщений. Дюнкерк / Dunkirk (1958) WEB-DLRip от Koenig | A

80 | 6

1.45 ГБ

В этой теме нет новых непрочитанных сообщений. Дюнкерк / Dunkirk (1958) BDRemux 1080р | L1

5 | 3

27.31 ГБ

В этой теме нет новых непрочитанных сообщений. OST - Дюнкерк / Dunkirk: Original Motion Picture Soundtrack [Music by Hans Zimmer] (2017) FLAC от NNNB

46 | 7

327.72 МБ

В этой теме нет новых непрочитанных сообщений. Дюнкерк / Dunkirk (2017) BDRip 720p | IMAX | Лицензия

1055 | 198

5.56 ГБ

В этой теме нет новых непрочитанных сообщений. Дюнкерк / Dunkirk (2017) BDRip 720p от HELLYWOOD | IMAX | Лицензия

2305 | 83

4.37 ГБ

В этой теме нет новых непрочитанных сообщений. Дюнкерк / Dunkirk (2017) BDRip 720p от ExKinoRay | IMAX | Лицензия

993 | 33

5.67 ГБ

В этой теме нет новых непрочитанных сообщений. Дюнкерк / Dunkirk (2017) BDRip 720p от KinoGadget | iPad | Лицензия

212 | 11

2.48 ГБ




Вы не можете начинать темы
Вы не можете отвечать на сообщения
Вы не можете редактировать свои сообщения
Вы не можете удалять свои сообщения
Вы не можете добавлять вложения

Перейти:  
Для Мосгорсуда, Роскомнадзора и рекламодателей: mosgorsud-torrent[собачка]yandex.ru
 Вход
ppkBB3cker v.2 © 2008-2014 @ PPK
[ Time : 0.059s | 19 Queries | GZIP : Off ]

cron