img image001 image001 image001 image001 image001 image001 image001 image001 image001 image001 image001 image001 image001 image001 image001

Planets Sun Sun Sun
Статистика раздачи
Автор: Nickolas3434 | Размер: 746.01 МБ | Добавлен: 12 янв 2018
Раздают: 56    Качают: 0
Скачать торрент
Скачать торрент
Описание торрента

СообщениеДобавлено: 12 янв 2018 

Информация о фильме
Название: В поисках Галактики
Оригинальное название: Galaxy Quest
Год выхода: 1999
Жанр: Фантастика, комедия, приключения
Режиссер: Дин Паризо
В ролях: Тим Аллен, Сигурни Уивер, Алан Рикман, Тони Шэлоуб, Сэм Рокуэлл, Дэрил Митчелл, Энрико Колантони, Робин Сакс, Патрик Брин, Мисси Пайл, Джед Риис, Джастин Лонг, Джереми Ховард, Кэйтлин Каллам, Джонатан Фейер, Корбин Блю, Уэйн Пер, Сэм Ллойд, Билл Чотт, Морган Руслер, Грегг Бинкли, Брэндон де Пол, Пол Дж. Кубиак, Джон Патрик Уайт, Тодд Гибенхейн, Жан-Поль Ману, Дэн Гюнтер
О фильме :
Вся Америка усаживалась к телеэкранам, когда начинался любимый зрителями сериал "В поисках Галактики". Герои этой фантастической саги были воистину народными героями. Но прошли годы, и сериал надоел телевизионным боссам. "В поисках Галактики" закрыли, а труппу распустили на все четыре стороны. Безработные бедолаги - актеры, исполнявшие главные роли героев - астронавтов, вынуждены были колесить по всей Америке, выступая на встречах с поклонниками за гроши. В общем, дела у бывших звезд обстояли, мягко говоря, весьма скверно... И вот однажды на один из таких "творческих вечеров" заглянули самые что ни на есть настоящие инопланетяне! Пришельцы были давно убеждены, что несчастные актеры - истинные борцы с вселенским злом, и именно от них зависит судьба Галактики. Инопланетяне выкрадывают актеров, которым теперь предстоит вернуть свой звездный статус в реальной схватке с космическими злодеями!

Страна: США
Студия: DreamWorks SKG, Gran Via
Продолжительность: 01:42:09
Перевод: Профессиональный (многоголосый, закадровый)
Файл
Формат: MKV
Качество: BDRip-AVC (Blu-Ray Remux)
Видео: MPEG-4 AVC, 752x320, ~ 943 Кбит/с
Аудио: AAC-LC, 2 ch, ~ 76 Кбит/с
Субтитры: Русские, английские
Общее
Уникальный идентификатор : 180075900196365068720440090814363381655 (0x87795B5A32C32254BE11D240ABCAAF97)
Полное имя : D:MOVIESGalaxy.Quest.1999.ExKinoRay.mkv
Формат : Matroska
Версия формата : Version 4 / Version 2
Размер файла : 746 Мбайт
Продолжительность : 1 ч. 42 м.
Общий поток : 1021 Кбит/сек
Дата кодирования : UTC 2018-01-07 05:46:51
Программа кодирования : mkvmerge v15.0.0 ('Duel with the Devil') 64-bit
Библиотека кодирования : libebml v1.3.5 + libmatroska v1.4.5
Видео
Идентификатор : 1
Формат : AVC
Формат/Информация : Advanced Video Codec
Профиль формата : [email protected]
Параметр CABAC формата : Да
Параметр RefFrames формата : 10 кадров
Идентификатор кодека : V_MPEG4/ISO/AVC
Продолжительность : 1 ч. 42 м.
Битрейт : 943 Кбит/сек
Ширина : 752 пикселя
Высота : 320 пикселей
Соотношение сторон : 2,35:1
Режим частоты кадров : Постоянный
Частота кадров : 23,976 (24000/1001) кадра/сек
Цветовое пространство : YUV
Субдискретизация насыщенности : 4:2:0
Битовая глубина : 8 бит
Тип развёртки : Прогрессивная
Бит/(Пиксели*Кадры) : 0.163
Размер потока : 689 Мбайт (92%)
Библиотека кодирования : x264 core 152 r2851 ba24899
Настройки программы : cabac=1 / ref=10 / deblock=1:-3:-3 / analyse=0x3:0x133 / me=umh / subme=11 / psy=1 / psy_rd=1.00:0.07 / mixed_ref=1 / me_range=32 / chroma_me=1 / trellis=2 / 8x8dct=1 / cqm=0 / deadzone=21,11 / fast_pskip=0 / chroma_qp_offset=-3 / threads=6 / lookahead_threads=1 / sliced_threads=0 / nr=0 / decimate=0 / interlaced=0 / bluray_compat=0 / constrained_intra=0 / bframes=10 / b_pyramid=2 / b_adapt=2 / b_bias=0 / direct=3 / weightb=1 / open_gop=0 / weightp=2 / keyint=240 / keyint_min=23 / scenecut=40 / intra_refresh=0 / rc_lookahead=40 / rc=2pass / mbtree=0 / bitrate=943 / ratetol=1.0 / qcomp=0.60 / qpmin=0 / qpmax=69 / qpstep=4 / cplxblur=20.0 / qblur=0.5 / vbv_maxrate=50000 / vbv_bufsize=62500 / nal_hrd=none / filler=0 / ip_ratio=1.40 / pb_ratio=1.30 / aq=1:1.00
Default : Да
Forced : Нет
Аудио
Идентификатор : 2
Формат : AAC
Формат/Информация : Advanced Audio Codec
Профиль формата : LC
Идентификатор кодека : A_AAC
Продолжительность : 1 ч. 42 м.
Битрейт : 76,0 Кбит/сек
Каналы : 2 канала
Расположение каналов : Front: L R
Частота : 48,0 КГц
Частота кадров : 46,875 кадров/сек (1024 SPF)
Метод сжатия : С потерями
Задержка видео : 9 мс.
Размер потока : 55,5 Мбайт (7%)
Default : Да
Forced : Нет
Текст #1
Идентификатор : 3
Формат : UTF-8
Идентификатор кодека : S_TEXT/UTF8
Идентификатор кодека/Информация : UTF-8 Plain Text
Продолжительность : 1 ч. 36 м.
Битрейт : 107 бит/сек
ElementCount : 1338
Размер потока : 76,1 Кбайт (0%)
Язык : Russian
Default : Нет
Forced : Нет
Текст #2
Идентификатор : 4
Формат : UTF-8
Идентификатор кодека : S_TEXT/UTF8
Идентификатор кодека/Информация : UTF-8 Plain Text
Продолжительность : 1 ч. 41 м.
Битрейт : 64 бит/сек
ElementCount : 1271
Размер потока : 47,6 Кбайт (0%)
Язык : English
Default : Нет
Forced : Нет
Меню
00:00:00.000 : :Chapter 01
00:06:14.248 : :Chapter 02
00:11:09.543 : :Chapter 03
00:15:19.418 : :Chapter 04
00:20:05.913 : :Chapter 05
00:25:26.525 : :Chapter 06
00:33:06.234 : :Chapter 07
00:38:25.136 : :Chapter 08
00:42:12.613 : :Chapter 09
00:46:37.085 : :Chapter 10
00:50:24.187 : :Chapter 11
00:55:22.360 : :Chapter 12
01:02:02.051 : :Chapter 13
01:07:23.289 : :Chapter 14
01:10:33.479 : :Chapter 15
01:16:05.519 : :Chapter 16
01:23:24.541 : :Chapter 17
01:28:24.382 : :Chapter 18
01:32:37.927 : :Chapter 19
01:37:30.261 : :Chapter 20
01:42:08.330 : :Chapter 21


Релиз от:



   Похожие торренты   Торрент   Размер 
В этой теме нет новых непрочитанных сообщений. В поисках галактики / Galaxy Quest (1999) BDRemux 1080p от ExKinoRay | Р, А

1 | 3

27.51 ГБ

В этой теме нет новых непрочитанных сообщений. В поисках галактики / Galaxy Quest (1999) BDRip-AVC

74 | 10

2.27 ГБ

В этой теме нет новых непрочитанных сообщений. В поисках галактики / Galaxy Quest (1999) BDRip от HQCLUB

31 | 11

2.64 ГБ

В этой теме нет новых непрочитанных сообщений. В поисках Галактики / Galaxy Quest (1999) BDRip-AVC от MediaClub | P, P2, A

58 | 2

4.2 ГБ

В этой теме нет новых непрочитанных сообщений. В поисках Галактики / Galaxy Quest (1999) BDRip 720p

5 | 2

4.83 ГБ

В этой теме нет новых непрочитанных сообщений. В поисках галактики / Galaxy Quest (1999) BDRip 1080p

31 | 14

4.37 ГБ

В этой теме нет новых непрочитанных сообщений. В поисках галактики / Galaxy Quest (1999) BDRip 1080p

16 | 4

8.3 ГБ




Вы не можете начинать темы
Вы не можете отвечать на сообщения
Вы не можете редактировать свои сообщения
Вы не можете удалять свои сообщения
Вы не можете добавлять вложения

Перейти:  
Для Мосгорсуда, Роскомнадзора и рекламодателей: mosgorsud-torrent[собачка]yandex.ru
 Вход
ppkBB3cker v.2 © 2008-2014 @ PPK
[ Time : 0.067s | 19 Queries | GZIP : Off ]

cron