img image001 image001 image001 image001 image001 image001 image001 image001 image001 image001 image001 image001 image001 image001 image001

Planets Sun Sun Sun
Статистика раздачи
Автор: Nickolas3434 | Размер: 9.96 ГБ | Добавлен: 12 янв 2018
Раздают: 3    Качают: 0
Скачать торрент
Скачать торрент
Описание торрента

СообщениеДобавлено: 12 янв 2018 




Информация о фильме
Название: Злоключения Альфреда
Оригинальное название: Les Malheurs d'Alfred
Год выхода: 1972
Жанр: комедия
Режиссер: Ив Робер
В ролях: Пьер Ришар, Анни Дюпре, Жан Карме, Поль Пребуа, Поль Ле Персон, Марио Давид, Френсис Лакс, Ив Робер, Робер Дальбан, Даниэль Лалу
О фильме:
Альфреду Дюмонтье с рождения катастрофически не везло: в семь лет он чуть было не попал в плен к фашистам, отец и мать умерли рано, девушка бросила его и ушла в монастырь. Пресытившись несчастьями, Альфред решил утопиться. И надо же было такому случиться, что именно на том самом мосту, с которого бросился в воду Альфред, в ту самую ночь, и в тот же час, туда пришла такая же невезучая бедолага - Агата Бодар, которую бросил известный телеведущий. Знай они, что сулит им эта случайная встреча... то они, наверное, всё равно бы пошли на тот мост, чтобы встретиться, и никогда не раставаться.

Выпущено: Франция, Gaumont International
Продолжительность: 01:33:29
Перевод: Профессиональный (многоголосый закадровый)
Файл
Качество видео: BDRip 1080p [BDRemux от HDClub]
Видео: AVC/H.264, 24.000 fps (True24p), 1792x1080, ~14.2 Mb/s, 0.305 Bits/(Pixel*Frame)
Аудио 1: AC3, 2 ch, 384 Kbps, 48.0 kHz (MVO, РенТВ)
Аудио 2: AC3, 2 ch, 384 Kbps, 48.0 kHz (MVO, студия «Кипарис»)
Субтитры: нет


General
Unique ID : 155384337380384356499700257766563318583 (0x74E5EF50B05CA5CA43A265FB81A30B37)
Complete name : F:FILMSЗлоключения Альфреда.(1972).BLU-RAY.1080p.2xMVO.RUS.[-=DoMiNo=-].mkv
Format : Matroska
Format version : Version 4 / Version 2
File size : 9.96 GiB
Duration : 1 h 33 min
Overall bit rate : 15.3 Mb/s
Movie name : Злоключения Альфреда
Deion : Альфреду Дюмонтье с рождения катастрофически не везло: в семь лет он чуть было не попал в плен к фашистам, отец и мать умерли рано, девушка бросила его и ушла в монастырь. Пресытившись несчастьями, Альфред решил утопиться. И надо же было такому случиться, что именно на том самом мосту, с которого бросился в воду Альфред, в ту самую ночь, и в тот же час, туда пришла такая же невезучая бедолага - Агата Бодар, которую бросил известный телеведущий. Знай они, что сулит им эта случайная встреча... то они, наверное, всё равно бы пошли на тот мост, чтобы встретиться, и никогда не раставаться.
Writing application : XviD4PSP 7.0.436 DAILY
Writing library : Lavf57.71.100
ErrorDetectionType : Per level 1
Attachments : poster.jpg
ACTORS : Пьер Ришар, Анни Дюпере, Жан Карме, Поль Пребуа, Поль Ле Персон, Марио Давид, Френсис Лакс, Ив Робер, Робер Дальбан, Даниэль Лалу, Жан Содрэ, Ив Эллиот, Марко Перрен, Danou Valdrini, Пьер Монди, Жан Об, Жан Мерме, Эвелин Бюиль, Жорж Беллер, Андре Нэйдер, Патрик Мессе, Шарль Шарра, Рен Виллерс, Серж Берри, Жан Руперт, Чарльз Дебор, Режис Эндер, Стефан Буи, Марсель Гассук, Роже Люмон, Жак Моно, Жан Рошфор
COMPOSER : Владимир Косма
COUNTRY : Франция
DATE : 1972
DIRECTOR : Пьер Ришар
ENCODING_INFO : BluRay > MKV 1080p / H264 > X264 CRF 20.0 Пользовательский / AC3 > COPY Безопасное / AC3 > COPY Безопасное
GENRE : мелодрама, комедия, спорт
HD_VIDEO : 1
IMDB_RATING : 6.10
ITUNEXTC : ru-movie|12+|200|
Language : und
MEDIA_TYPE : 9
ORIGINAL_ACTORS : Pierre Richard, Anny Duperey, Jean Carmet, Paul Préboist, Paul Le Person, Mario David, Francis Lax, Yves Robert, Robert Dalban, Daniel Laloux, Jean Saudray, Yves Elliot, Marco Perrin, Pierre Mondy, Jean Obé, Jean Mermet, Evelyne Buyle, Georges Beller, André Nader, Patrick Messe, Charles Charras, Ren Villers, Serge Berry, Jean Rupert, Charles Debord, Régis Ander, Stéphane Bouy, Marcel Gassouk, Roger Lumont, Jacques Monod, Jean Rochefort
ORIGINAL_TITLE : Les Malheurs d'Alfred
PRODUCER : Ален Пуаре, Ив Робер
RATING : 6.888
WRITER : Пьер Ришар, Ив Робер, Андре Рюллан, Роланд Топор
Video
ID : 1
Format : AVC
Format/Info : Advanced Video Codec
Format profile : [email protected]
Format settings : CABAC / 4 Ref Frames
Format settings, CABAC : Yes
Format settings, ReFrames : 4 frames
Codec ID : V_MPEG4/ISO/AVC
Duration : 1 h 33 min
Bit rate : 14.2 Mb/s
Width : 1 792 pixels
Height : 1 080 pixels
Display aspect ratio : 5:3
Frame rate mode : Constant
Frame rate : 24.000 FPS
Color space : YUV
Chroma subsampling : 4:2:0
Bit depth : 8 bits
Scan type : Progressive
Bits/(Pixel*Frame) : 0.305
Stream size : 9.26 GiB (93%)
Title : BLU_RAY_1080p_RIP_BY_-=DoMiNo=-
Writing library : x264 core 155 r2893M b00bcaf
Encoding settings : cabac=1 / ref=4 / deblock=1:-3:-3 / analyse=0x3:0x113 / me=umh / subme=10 / psy=1 / psy_rd=1.00:0.00 / mixed_ref=1 / me_range=32 / chroma_me=1 / trellis=2 / 8x8dct=1 / cqm=0 / deadzone=21,11 / fast_pskip=1 / chroma_qp_offset=-2 / threads=5 / lookahead_threads=1 / sliced_threads=0 / nr=0 / decimate=1 / interlaced=0 / bluray_compat=0 / constrained_intra=0 / bframes=6 / b_pyramid=2 / b_adapt=2 / b_bias=0 / direct=3 / weightb=1 / open_gop=0 / weightp=2 / keyint=240 / keyint_min=24 / scenecut=40 / intra_refresh=0 / rc_lookahead=60 / rc=crf / mbtree=1 / crf=20.0 / qcomp=0.60 / qpmin=0 / qpmax=69 / qpstep=4 / ip_ratio=1.40 / aq=1:1.00
Default : Yes
Forced : No
Color range : Limited
Color primaries : BT.709
Transfer characteristics : BT.709
Matrix coefficients : BT.709
Audio #1
ID : 2
Format : AC-3
Format/Info : Audio Coding 3
Codec ID : A_AC3
Duration : 1 h 33 min
Bit rate mode : Constant
Bit rate : 384 kb/s
Channel(s) : 2 channels
Channel positions : Front: L R
Sampling rate : 48.0 kHz
Frame rate : 31.250 FPS (1536 SPF)
Bit depth : 16 bits
Compression mode : Lossy
Stream size : 257 MiB (3%)
Language : Russian
Service kind : Complete Main
Default : Yes
Forced : No
Audio #2
ID : 3
Format : AC-3
Format/Info : Audio Coding 3
Codec ID : A_AC3
Duration : 1 h 33 min
Bit rate mode : Constant
Bit rate : 384 kb/s
Channel(s) : 2 channels
Channel positions : Front: L R
Sampling rate : 48.0 kHz
Frame rate : 31.250 FPS (1536 SPF)
Bit depth : 16 bits
Compression mode : Lossy
Stream size : 257 MiB (3%)
Language : Russian
Service kind : Complete Main
Default : No
Forced : No
Menu
00:00:00.000 : :Глава 1
00:07:10.958 : :Глава 2
00:14:29.082 : :Глава 3
00:21:45.665 : :Глава 4
00:29:30.040 : :Глава 5
00:37:20.416 : :Глава 6
00:44:31.375 : :Глава 7
00:51:34.208 : :Глава 8
00:58:54.125 : :Глава 9
01:06:03.916 : :Глава 10
01:12:56.832 : :Глава 11
01:20:28.000 : :Глава 12
01:33:28.750 : :Глава 13





   Похожие торренты   Торрент   Размер 
В этой теме нет новых непрочитанных сообщений. Злоключения Альфреда / Les Malheurs d'Alfred (1972) BDRip 1080p

2 | 2

7.81 ГБ

В этой теме нет новых непрочитанных сообщений. Злоключения Альфреда / Les Malheurs d'Alfred (1972) BDRip-AVC | P

16 | 1

2.18 ГБ

В этой теме нет новых непрочитанных сообщений. Злоключения Альфреда / Les Malheurs d'Alfred (1972) BDRip-AVC | P

21 | 0

746.85 МБ

В этой теме нет новых непрочитанных сообщений. Злоключения Альфреда / Les Malheurs d'Alfred (1972) BDRip 720p

15 | 11

5.06 ГБ

В этой теме нет новых непрочитанных сообщений. Злоключения Альфреда / Les Malheurs d'Alfred (1972) BDRip от HQCLUB

74 | 15

1.45 ГБ

В этой теме нет новых непрочитанных сообщений. Злоключения Альфреда / Les Malheurs d'Alfred (1972) BDRip 720p от HDClub

7 | 5

8.25 ГБ

В этой теме нет новых непрочитанных сообщений. Злоключения Альфреда / Les Malheurs d'Alfred (1972) WEB-DLRip

10 | 4

1.45 ГБ




Вы не можете начинать темы
Вы не можете отвечать на сообщения
Вы не можете редактировать свои сообщения
Вы не можете удалять свои сообщения
Вы не можете добавлять вложения

Перейти:  
Для Мосгорсуда, Роскомнадзора и рекламодателей: mosgorsud-torrent[собачка]yandex.ru
 Вход
ppkBB3cker v.2 © 2008-2014 @ PPK
[ Time : 0.053s | 18 Queries | GZIP : Off ]

cron