img image001 image001 image001 image001 image001 image001 image001 image001 image001 image001 image001 image001 image001 image001 image001

Planets Sun Sun Sun
Статистика раздачи
Автор: PriZraK | Размер: 11.59 ГБ | Добавлен: 28 авг 2016
Раздают: 145    Качают: 84
Скачать торрент
Скачать торрент
Описание торрента

СообщениеДобавлено: 28 авг 2016 

Название: Дикие улицы
Оригинальное название: Savage Streets
Год выхода: 1984
Страна: США
Студия: Ginso Investment Corp., Savage Streets Partnership
Продолжительность: 01:32:48
Жанр: боевик, криминал, ...
Режиссер: Дэнни Стейнманн
В ролях: Линда Блэр (Linda Blair), Джон Вернон (John Vernon), Роберт Драйер (Robert Dryer), Сэл Ланди (Sal Landi), Скотт Майер (Scott Mayer), Дебра Бли (Debra Blee), Лиза Фриман (Lisa Freeman), Марсия Карр (Marcia Karr), Луиза Лешин (Luisa Leschin), ...
Перевод:
- Авторский (одноголосый, закадровый) Гаврилов Андрей Юрьевич (со вставками Иванова)
- Авторский (одноголосый, закадровый) Иванов Михаил Николаевич
О фильме: После того, как юная Хезер была жестоко изнасилована бандой хулиганов, её старшая сестра Бренда превратилась из скромной школьницы в крутую мстительницу…

Кодек: x264
Качество: BDRip 1080p
Видео: 1920x1080, 16000 kbps, 23,976 fps
Аудио #1: AC-3, 2 ch, 192 kbps (Rus) - AVO Андрей Гаврилов
Аудио #2: AC-3, 2 ch, 192 kbps (Rus) - AVO Михаил Иванов
Аудио #3: DTS, 6 ch, 1509 kbps (Eng)
Субтитры: нет
За исходник спасибо - flaSI-I

x264 [info]: frame I:747 Avg QP:18.23 size:197691
x264 [info]: frame P:28250 Avg QP:20.89 size:100662
x264 [info]: frame B:104492 Avg QP:22.10 size: 77880
x264 [info]: consecutive B-frames: 1.6% 3.2% 7.3% 18.1% 13.8% 43.1% 5.6% 1.4% 2.7% 0.7% 0.9% 1.1% 0.3%
Общее
Уникальный идентификатор : 248630065780511610805459231546922617281 (0xBB0C68AC1BBF28B986686B8FFDADC9C1)
Полное имя : Дикие улицы (Savage Streets) 1984 BDRip 1080p.mkv
Формат : Matroska
Версия формата : Version 2
Размер файла : 11,6 Гбайт
Продолжительность : 1 ч. 32 м.
Общий поток : 17,9 Мбит/сек
Дата кодирования : UTC 2016-08-27 05:24:17
Программа кодирования : mkvmerge v4.0.0 ('The Stars were mine') сборка от Jun 6 2010 16:18:42
Библиотека кодирования : libebml v1.0.0 + libmatroska v1.0.0
Видео
Идентификатор : 1
Формат : AVC
Формат/Информация : Advanced Video Codec
Профиль формата : [email protected]
Параметр CABAC формата : Да
Параметр ReFrames формата : 4 кадра
Идентификатор кодека : V_MPEG4/ISO/AVC
Продолжительность : 1 ч. 32 м.
Битрейт : 16,0 Мбит/сек
Ширина : 1920 пикселей
Высота : 1080 пикселей
Соотношение сторон : 16:9
Режим частоты кадров : Постоянный
Частота кадров : 23,976 (24000/1001) кадра/сек
Цветовое пространство : YUV
Субдискретизация насыщенности : 4:2:0
Битовая глубина : 8 бит
Тип развёртки : Прогрессивная
Бит/(Пиксели*Кадры) : 0.322
Размер потока : 10,1 Гбайт (87%)
Библиотека кодирования : x264 core 146 r2538 121396c
Настройки программы : cabac=1 / ref=4 / deblock=1:-3:-3 / analyse=0x3:0x133 / me=umh / subme=11 / psy=1 / psy_rd=1.10:0.16 / mixed_ref=1 / me_range=32 / chroma_me=1 / trellis=2 / 8x8dct=1 / cqm=0 / deadzone=21,11 / fast_pskip=0 / chroma_qp_offset=-3 / threads=12 / lookahead_threads=2 / sliced_threads=0 / nr=0 / decimate=0 / interlaced=0 / bluray_compat=0 / constrained_intra=0 / bframes=12 / b_pyramid=2 / b_adapt=2 / b_bias=0 / direct=3 / weightb=1 / open_gop=0 / weightp=2 / keyint=240 / keyint_min=23 / scenecut=40 / intra_refresh=0 / rc_lookahead=60 / rc=2pass / mbtree=1 / bitrate=16000 / ratetol=1.0 / qcomp=0.60 / qpmin=0 / qpmax=69 / qpstep=4 / cplxblur=20.0 / qblur=0.5 / vbv_maxrate=50000 / vbv_bufsize=62500 / nal_hrd=none / filler=0 / ip_ratio=1.40 / aq=1:0.90
Язык : English
Default : Нет
Forced : Нет
Аудио #1
Идентификатор : 2
Формат : AC-3
Формат/Информация : Audio Coding 3
Расширение режима : CM (complete main)
Параметр Endianness формата : Big
Идентификатор кодека : A_AC3
Продолжительность : 1 ч. 32 м.
Вид битрейта : Постоянный
Битрейт : 192 Кбит/сек
Каналы : 2 канала
Расположение каналов : Front: L R
Частота : 48,0 КГц
Частота кадров : 31,250 кадров/сек (1536 spf)
Метод сжатия : С потерями
Размер потока : 127 Мбайт (1%)
Заголовок : AVO Андрей Гаврилов
Язык : Russian
Default : Нет
Forced : Нет
Аудио #2
Идентификатор : 3
Формат : AC-3
Формат/Информация : Audio Coding 3
Расширение режима : CM (complete main)
Параметр Endianness формата : Big
Идентификатор кодека : A_AC3
Продолжительность : 1 ч. 32 м.
Вид битрейта : Постоянный
Битрейт : 192 Кбит/сек
Каналы : 2 канала
Расположение каналов : Front: L R
Частота : 48,0 КГц
Частота кадров : 31,250 кадров/сек (1536 spf)
Метод сжатия : С потерями
Размер потока : 127 Мбайт (1%)
Заголовок : AVO Михаил Иванов
Язык : Russian
Default : Нет
Forced : Нет
Аудио #3
Идентификатор : 4
Формат : DTS
Формат/Информация : Digital Theater Systems
Режим : 16
Параметр Endianness формата : Big
Идентификатор кодека : A_DTS
Продолжительность : 1 ч. 32 м.
Вид битрейта : Постоянный
Битрейт : 1509 Кбит/сек
Каналы : 6 каналов
Расположение каналов : Front: L C R, Side: L R, LFE
Частота : 48,0 КГц
Частота кадров : 93,750 кадра/сек (512 spf)
Битовая глубина : 24 бит
Метод сжатия : С потерями
Размер потока : 1002 Мбайт (8%)
Язык : Russian
Default : Нет
Forced : Нет





   Похожие торренты   Торрент   Размер 
В этой теме нет новых непрочитанных сообщений. Дикие улицы / Savage Streets (1984) BDRemux 1080p | A

2 | 3

18.88 ГБ

В этой теме нет новых непрочитанных сообщений. Дикие улицы / Savage Streets (1984) BDRip-AVC | A

12 | 1

2.73 ГБ

В этой теме нет новых непрочитанных сообщений. Дикие улицы / Savage Streets (1984) BDRip от MegaPeer | A

83 | 18

1.46 ГБ

В этой теме нет новых непрочитанных сообщений. Дикие улицы / Savage Streets (1984) BDRip 720p | A

21 | 5

6.37 ГБ

В этой теме нет новых непрочитанных сообщений. Дикие улицы / Savage Streets (1984) BDRip от HQCLUB | A

11 | 0

1.45 ГБ

В этой теме нет новых непрочитанных сообщений. Дикие улицы / Savage Streets (1984) DVD9 | A

1 | 3

5.65 ГБ

В этой теме нет новых непрочитанных сообщений. Дикие улицы / Savage Streets (1984) DVDRip | A

6 | 2

757.91 МБ




Вы не можете начинать темы
Вы не можете отвечать на сообщения
Вы не можете редактировать свои сообщения
Вы не можете удалять свои сообщения
Вы не можете добавлять вложения

Перейти:  
Для Мосгорсуда, Роскомнадзора и рекламодателей: mosgorsud-torrent[собачка]yandex.ru
 Вход
ppkBB3cker v.2 © 2008-2014 @ PPK
[ Time : 0.062s | 19 Queries | GZIP : Off ]

cron