img image001 image001 image001 image001 image001 image001 image001 image001 image001 image001 image001 image001 image001 image001 image001

Planets Sun Sun Sun
Статистика раздачи
Автор: Снежана | Размер: 2.89 ГБ | Добавлен: 20 июл 2013
Раздают: 8    Качают: 3
Скачать торрент
Скачать торрент
Описание торрента

СообщениеДобавлено: 20 июл 2013 

#77

Любовь вне правил / Leatherheads (2008) BDRip-AVC

Страна: США, Германия
Жанр: Комедия
Год выпуска: 2008
Продолжительность: 01:53:43

Перевод: Профессиональный (многоголосый закадровый) R5
Cубтитры: нет
Режиссер: Джордж Клуни / George Clooney

В ролях: Джордж Клуни, Рене Зельвегер, Джон Красински, Джонатан Прайс, Стивен Рут, Уэйн Дювал

Описание: 1925 год. Додж Коннели - очаровательный, дерзкий капитан футбольной команды, полный решимости сделать свою команду низшего уровня известной по всей Америке. В тот момент, когда игроки теряют спонсора, да и сама лига находится на грани развала, Додж убеждает звездного игрока из колледжа присоединится к его сброду. Он надеется, что это поможет команде привлечь к себе внимание всей страны. Так в команде появляется Картер Разерфорд, любимец Америки. Герой Первой Мировой войны, в одиночку взявший в плен многочисленный отряд немецких солдат. Помимо того, что Картер - красавец, он еще и может похвастаться невероятной скоростью на поле. В новом игроке все слишком хорошо, чтобы быть правдой, и начинающая репортерша Лекси Литтлтон решает доказать, что так оно и есть. И пока она копается в прошлом, Додж и Картер увлекаются девушкой, что приводит к серьезному соперничеству двух товарищей по команде.

Доп. информация:



Качество видео: BDRip-AVC(Исх. BDRemux)
Формат видео: MKV

Видео: 1280x688 (1.860), 23.976 fps, AVC, ~3253 kbps, 0.154 bits/pixel
Аудио: 48.0 KHz, AC3, 6 ch, 384 kbps
General
Unique ID : 204644498010150595209573301746285129117 (0x99F518BF2E3B38F39F9C7FAC94F3AD9D)
Complete name : L:Lubov vne pravil.chopper887.mkv
Format : Matroska
File size : 2.89 GiB
Duration : 1h 53mn
Overall bit rate : 3 636 Kbps
Movie name : Lubov vne pravil.chopper887
Encoded date : UTC 2011-06-16 15:16:00
Writing application : mkvmerge v4.8.0 ('I Got The...') built on May 24 2011 03:12:58
Writing library : libebml v1.2.0 + libmatroska v1.1.0

Video
ID : 1
Format : AVC
Format/Info : Advanced Video Codec
Format profile : [email protected]
Format settings, CABAC : Yes
Format settings, ReFrames : 8 frames
Codec ID : V_MPEG4/ISO/AVC
Duration : 1h 53mn
Bit rate : 3 253 Kbps
Width : 1 280 pixels
Height : 688 pixels
Display aspect ratio : 1.860
Frame rate : 23.976 fps
Color space : YUV
Chroma subsampling : 4:2:0
Bit depth : 8 bits
Scan type : Progressive
Bits/(Pixel*Frame) : 0.154
Stream size : 2.53 GiB (87%)
Title : Lubov vne pravil.chopper887
Writing library : x264 core 115 r1995 c1e60b9
Encoding settings : cabac=1 / ref=8 / deblock=1:-2:-1 / analyse=0x3:0x133 / me=umh / subme=9 / psy=1 / psy_rd=1.00:0.10 / mixed_ref=1 / me_range=32 / chroma_me=1 / trellis=2 / 8x8dct=1 / cqm=0 / deadzone=21,11 / fast_pskip=0 / chroma_qp_offset=-3 / threads=3 / sliced_threads=0 / nr=0 / decimate=1 / interlaced=0 / bluray_compat=0 / constrained_intra=0 / bframes=8 / b_pyramid=2 / b_adapt=2 / b_bias=0 / direct=3 / weightb=1 / open_gop=0 / weightp=2 / keyint=250 / keyint_min=23 / scenecut=40 / intra_refresh=0 / rc_lookahead=80 / rc=2pass / mbtree=1 / bitrate=3253 / ratetol=1.0 / qcomp=0.70 / qpmin=0 / qpmax=69 / qpstep=4 / cplxblur=20.0 / qblur=0.5 / ip_ratio=1.40 / aq=1:1.00
Language : English

Audio
ID : 2
Format : AC-3
Format/Info : Audio Coding 3
Mode extension : CM (complete main)
Codec ID : A_AC3
Duration : 1h 53mn
Bit rate mode : Constant
Bit rate : 384 Kbps
Channel(s) : 6 channels
Channel positions : Front: L C R, Side: L R, LFE
Sampling rate : 48.0 KHz
Bit depth : 16 bits
Compression mode : Lossy
Stream size : 312 MiB (11%)
Title : Многоголосый-R5







   Похожие торренты   Торрент   Размер 
В этой теме нет новых непрочитанных сообщений. Любовь вне правил / Leatherheads (2008) BDRip-AVC | P

31 | 4

1.35 ГБ

В этой теме нет новых непрочитанных сообщений. Любовь вне правил / Leatherheads (2008) BDRip от HQ-ViDEO

156 | 17

2.18 ГБ

В этой теме нет новых непрочитанных сообщений. Любовь вне правил / Leatherheads (2008) BDRip-AVC от Rulya74

6 | 2

1.45 ГБ

В этой теме нет новых непрочитанных сообщений. Любовь вне правил / Leatherheads (2008) BDRip от Rulya74

21 | 2

1.45 ГБ

В этой теме нет новых непрочитанных сообщений. Любовь вне правил / Leatherheads (2008) BDRip от HQCLUB

23 | 1

2.19 ГБ

В этой теме нет новых непрочитанных сообщений. Любовь вне правил / Leatherheads (2008) BDRip 720p от HDLine | P

27 | 2

4.32 ГБ

В этой теме нет новых непрочитанных сообщений. Любовь вне правил / Leatherheads (2008) BDRip 1080p от HDLine | P

16 | 1

9.02 ГБ




Вы не можете начинать темы
Вы не можете отвечать на сообщения
Вы не можете редактировать свои сообщения
Вы не можете удалять свои сообщения
Вы не можете добавлять вложения

Перейти:  
Для Мосгорсуда, Роскомнадзора и рекламодателей: mosgorsud-torrent[собачка]yandex.ru
 Вход
ppkBB3cker v.2 © 2008-2014 @ PPK
[ Time : 0.053s | 18 Queries | GZIP : Off ]

cron