img image001 image001 image001 image001 image001 image001 image001 image001 image001 image001 image001 image001 image001 image001 image001

Planets Sun Sun Sun
Статистика раздачи
Автор: PriZraK | Размер: 1.77 ГБ | Добавлен: 02 окт 2013
Раздают: 42    Качают: 6
Скачать торрент
Скачать торрент
Описание торрента

СообщениеДобавлено: 02 окт 2013 

#77


Информация о фильме
Название: Выкуп
Оригинальное название: Butterfly on a Wheel
Год выхода: 2007
Жанр: триллер, драма, криминал
Режиссер: Майк Баркер
В ролях: Джерард Батлер, Мария Белло, Пирс Броснан, Клодетт Минк, Крис Астоян, Саманта Феррис, Кэтлин Дэгис, Агам Дарши, Аарон Дуглас, Джесси Грин

О фильме:
У Нила и Эбби Уорнер идеальный брак и идеальная жизнь. Вместе с дочкой Софи они являются живым воплощением «американской мечты»… но мечты заканчиваются… Внезапно Софи похищают, и родителям не остается ничего другого, как согласиться на условия похитителя. В мгновения ока их жизнь оказывается в руках похитителя — Райана — социопата, которому, похоже, нечего терять. Они выполняют все более и более изощренные требования Райана, пока не становится ясно, что этому человеку нужны вовсе не их деньги — он жаждет полностью, кусочек за кусочком, разрушить жизнь Нила и Эбби, жизнь, которую они строили более 10 лет…

Страна: США
Студия: Butterfly Productions, Icon Entertainment International
Продолжительность: 01:34:57
Перевод: Дублированный

Файл
Кодек: h.264
Качество: BDRip-AVC
Видео: 1788 Кбит/с, 1024x426, 23.976 кадр/с
Звук: Русский, английский (AC3, 6 ch, 448 Кбит/с)
Субтитры: Русские, английские

Общее
Уникальный идентификатор : 194475181783866828679409834720545836337 (0x924E8EBF1EE45F67AC0ACB70487D8D31)
Полное имя : F:Vikup.2007.x264.BDRip.(AVC).0ptimus.mkv
Формат : Matroska
Версия формата : Version 4 / Version 2
Размер файла : 1,77 Гбайт
Продолжительность : 1 ч. 34 м.
Общий поток : 2676 Кбит/сек
Название фильма : Выкуп | Butterfly on a Wheel [2007] -=BDRip (AVC) by 0ptimus=-
Дата кодирования : UTC 2013-08-16 09:01:11
Программа кодирования : mkvmerge v6.1.0 ('Old Devil') built on Mar 2 2013 14:32:37
Библиотека кодирования : libebml v1.3.0 + libmatroska v1.4.0

Видео
Идентификатор : 1
Формат : AVC
Формат/Информация : Advanced Video Codec
Профиль формата : [email protected]
Параметр CABAC формата : Да
Параметр ReFrames формата : 10 кадров
Идентификатор кодека : V_MPEG4/ISO/AVC
Продолжительность : 1 ч. 34 м.
Битрейт : 1788 Кбит/сек
Ширина : 1024 пикселя
Высота : 426 пикселей
Соотношение сторон : 2,40:1
Частота кадров : 23,976 кадра/сек
Цветовое пространство : YUV
Субдискретизация насыщенности : 4:2:0
Битовая глубина : 8 бит
Тип развёртки : Прогрессивная
Бит/(Пиксели*Кадры) : 0.171
Размер потока : 1,15 Гбайт (65%)
Заголовок : Rip by 0ptimus
Библиотека кодирования : x264 core 92 r1510 33d382a
Настройки программы : cabac=1 / ref=10 / deblock=1:-2:-1 / analyse=0x3:0x113 / me=umh / subme=9 / psy=1 / psy_rd=1.00:0.20 / mixed_ref=1 / me_range=32 / chroma_me=1 / trellis=1 / 8x8dct=1 / cqm=0 / deadzone=21,11 / fast_pskip=0 / chroma_qp_offset=2 / threads=3 / sliced_threads=0 / nr=0 / decimate=0 / interlaced=0 / constrained_intra=0 / bframes=5 / b_pyramid=2 / b_adapt=2 / b_bias=0 / direct=3 / wpredb=1 / wpredp=2 / keyint=250 / keyint_min=25 / scenecut=40 / intra_refresh=0 / rc=2pass / mbtree=0 / bitrate=1788 / ratetol=1.0 / qcomp=0.70 / qpmin=10 / qpmax=51 / qpstep=4 / cplxblur=20.0 / qblur=0.5 / ip_ratio=1.40 / pb_ratio=1.30 / aq=1:1.50
Язык : English

Аудио #1
Идентификатор : 2
Формат : AC-3
Формат/Информация : Audio Coding 3
Расширение режима : CM (complete main)
Идентификатор кодека : A_AC3
Продолжительность : 1 ч. 34 м.
Вид битрейта : Постоянный
Битрейт : 448 Кбит/сек
Каналы : 6 каналов
Расположение каналов : Front: L C R, Side: L R, LFE
Частота : 48,0 КГц
Битовая глубина : 16 бит
Метод сжатия : С потерями
Размер потока : 304 Мбайт (17%)
Заголовок : Дублированный AC3 5.1 @ 448 kbps
Язык : Russian

Аудио #2
Идентификатор : 3
Формат : AC-3
Формат/Информация : Audio Coding 3
Расширение режима : CM (complete main)
Идентификатор кодека : A_AC3
Продолжительность : 1 ч. 34 м.
Вид битрейта : Постоянный
Битрейт : 448 Кбит/сек
Каналы : 6 каналов
Расположение каналов : Front: L C R, Side: L R, LFE
Частота : 48,0 КГц
Битовая глубина : 16 бит
Метод сжатия : С потерями
Размер потока : 304 Мбайт (17%)
Заголовок : AC3 5.1 @ 448 kbps
Язык : English

Текст #1
Идентификатор : 4
Формат : UTF-8
Идентификатор кодека : S_TEXT/UTF8
Идентификатор кодека/Информация : UTF-8 Plain Text
Язык : Russian

Текст #2
Идентификатор : 5
Формат : UTF-8
Идентификатор кодека : S_TEXT/UTF8
Идентификатор кодека/Информация : UTF-8 Plain Text
Язык : English

Меню
00:00:00.000 : en:Chapter 1
00:10:19.791 : en:Chapter 2
00:16:26.333 : en:Chapter 3
00:24:00.250 : en:Chapter 4
00:29:46.583 : en:Chapter 5
00:36:57.958 : en:Chapter 6
00:44:16.041 : en:Chapter 7
00:51:54.958 : en:Chapter 8
01:04:00.375 : en:Chapter 9
01:14:57.958 : en:Chapter 10
01:21:52.000 : en:Chapter 11
01:29:05.625 : en:Chapter 12




Релиз от:



   Похожие торренты   Торрент   Размер 
В этой теме нет новых непрочитанных сообщений. Выкуп / Butterfly on a Wheel (2007) BDRip от Freeisland

15 | 2

2.05 ГБ

В этой теме нет новых непрочитанных сообщений. Выкуп / Butterfly on a Wheel (2007) BDRip от HELLYWOOD

1 | 37

1.71 ГБ

В этой теме нет новых непрочитанных сообщений. Выкуп / Butterfly on a Wheel (2007) BDRip 1080p от denis 100

265 | 164

7.75 ГБ

В этой теме нет новых непрочитанных сообщений. Выкуп / Butterfly on a Wheel (2007) BDRip от HQCLUB | Italy Transfer

138 | 4

1.45 ГБ

В этой теме нет новых непрочитанных сообщений. Выкуп / Butterfly on a Wheel (2007) BDRip (720p) от NOLIMITS-TEAM

6 | 2

2.18 ГБ

В этой теме нет новых непрочитанных сообщений. Выкуп / Butterfly on a Wheel (2007) BDRip 720p от NNNB | ITA Transfer

41 | 1

4.37 ГБ

В этой теме нет новых непрочитанных сообщений. Выкуп / Butterfly On A Wheel (2007) HDRip от Scarabey

98 | 4

1.45 ГБ




Вы не можете начинать темы
Вы не можете отвечать на сообщения
Вы не можете редактировать свои сообщения
Вы не можете удалять свои сообщения
Вы не можете добавлять вложения

Перейти:  
Для Мосгорсуда, Роскомнадзора и рекламодателей: mosgorsud-torrent[собачка]yandex.ru
 Вход
ppkBB3cker v.2 © 2008-2014 @ PPK
[ Time : 0.127s | 17 Queries | GZIP : Off ]

cron