img image001 image001 image001 image001 image001 image001 image001 image001 image001 image001 image001 image001 image001 image001 image001

Planets Sun Sun Sun
Статистика раздачи
Автор: Nickolas3434 | Размер: 16.59 ГБ | Добавлен: 12 янв 2018
Раздают: 0    Качают: 0
Скачать торрент
Скачать торрент
Описание торрента

СообщениеДобавлено: 12 янв 2018 

Удивительная миссис Мейзел / Невероятная миссис Мэйзел / The Marvelous Mrs. Maisel
Страна: США
Производство: Amazon Studios, Picrow
Год выпуска: 2017
Сезон: 1
Жанр: драма, комедия
Продолжительность: х ~00:56:00
Режиссеры: Эми Шерман-Палладино, Дэниэл Палладино, Скотт Эллис
Авторы сценария: Эми Шерман-Палладино, Дэниэл Палладино, Шила Р. Лоуренс
В ролях: Рэйчел Броснахэн, Алекс Борштейн, Майкл Зеген, Марин Хинкль, Тони Шэлуб, Бейли Де Янг, Матильда Дауни, Брайан Тарантина
Описание: Действие разворачивается в Нью-Йорке 1958 года. В основе сюжета лежит история «примерной домохозяйки» Мириам Майзел, которая внезапно обнаруживает у себя скрытый талант к стендапу...

Перевод: Любительский (многоголосый, закадровый) | Ozz-tv
Роли озвучивают: Маргарита Корш, Иван Кузнецов и Алексей Серегин
Субтитры: английские, русские

Качество: WEBRip 1080р
Формат: МКV
Видео кодек: AVC
Аудио кодек: АС3
Видео: 1920x1080 (16:9), 23.976 fps, MPEG-4 AVC ~7 618 kbps avg
Аудио №1: 48.0 kHz, AC3 Dolby Digital, 2/0 (L,R) ch, ~192 kbps | RUS / Ozz-tv
Аудио №2: 48.0 kHz, AC3 Dolby Digital, 3/2 (L,C,R,l,r) + LFE ch, ~640 kbps | ENG
Формат субтитров: UTF-8 Plain Text
Дата премьеры (мир): 16 марта 2017

General
Уникальный идентификатор : 183146231661460930209856856495574139188 (0x89C8AE618A59F6B680CD42B3E012C134)
Полное имя : The.Marvelous.Mrs.Maisel.S01E01.1080p.WEBRip.Rus.Eng.Ozz.mkv
Формат : Matroska
Версия формата : Version 4 / Version 2
Размер файла : 3,42 Гбайт
Продолжительность : 56 м.
Режим общего битрейта : Переменный
Общий поток : 8622 Кбит/сек
Дата кодирования : UTC 2017-12-08 12:43:08
Программа кодирования : mkvmerge v6.3.0 ('You can't stop me!') built on Jun 28 2013 20:09:41
Библиотека кодирования : libebml v1.3.0 + libmatroska v1.4.0
Видео
Идентификатор : 1
Формат : AVC
Формат/Информация : Advanced Video Codec
Профиль формата : [email protected]
Параметр CABAC формата : Да
Параметр ReFrames формата : 4 кадра
Идентификатор кодека : V_MPEG4/ISO/AVC
Продолжительность : 56 м.
Вид битрейта : Переменный
Битрейт : 7618 Кбит/сек
Максимальный битрейт : 15,0 Мбит/сек
Ширина : 1920 пикселей
Высота : 1080 пикселей
Соотношение сторон : 16:9
Режим частоты кадров : Постоянный
Частота кадров : 23,976 кадра/сек
Цветовое пространство : YUV
Субдискретизация насыщенности : 4:2:0
Битовая глубина : 8 бит
Тип развёртки : Прогрессивная
Бит/(Пиксели*Кадры) : 0.153
Размер потока : 3,03 Гбайт (88%)
Default : Да
Forced : Нет
Основные цвета : BT.709
Характеристики трансфера : BT.709
Коэффициенты матрицы : BT.709
Аудио #1
Идентификатор : 2
Формат : AC-3
Формат/Информация : Audio Coding 3
Расширение режима : CM (complete main)
Параметр Endianness формата : Big
Идентификатор кодека : A_AC3
Продолжительность : 56 м.
Вид битрейта : Постоянный
Битрейт : 192 Кбит/сек
Каналы : 2 канала
Расположение каналов : Front: L R
Частота : 48,0 КГц
Битовая глубина : 16 бит
Метод сжатия : С потерями
Размер потока : 78,1 Мбайт (2%)
Заголовок : MVO Ozz-tv
Язык : Russian
Default : Да
Forced : Нет
Аудио #2
Идентификатор : 3
Формат : E-AC-3
Формат/Информация : Audio Coding 3
Параметр Endianness формата : Big
Идентификатор кодека : A_EAC3
Продолжительность : 56 м.
Вид битрейта : Постоянный
Битрейт : 640 Кбит/сек
Каналы : 6 каналов
Расположение каналов : Front: L C R, Side: L R, LFE
Частота : 48,0 КГц
Метод сжатия : С потерями
Размер потока : 260 Мбайт (7%)
Язык : English
Default : Нет
Forced : Нет
Текст #1
Идентификатор : 4
Формат : UTF-8
Идентификатор кодека : S_TEXT/UTF8
Идентификатор кодека/Информация : UTF-8 Plain Text
Заголовок : Илья Уюсов и Кирилл Порозов
Язык : Russian
Default : Нет
Forced : Нет
Текст #2
Идентификатор : 5
Формат : UTF-8
Идентификатор кодека : S_TEXT/UTF8
Идентификатор кодека/Информация : UTF-8 Plain Text
Язык : English
Default : Нет
Forced : Нет



   Похожие торренты   Торрент   Размер 
В этой теме нет новых непрочитанных сообщений. Удивительная миссис Мейзел / The Marvelous Mrs. Maisel [01х01-05 из 08] (2017) WEBRip 1080р | Ozz

0 | 0

13.98 ГБ

В этой теме нет новых непрочитанных сообщений. Удивительная миссис Мейзел / The Marvelous Mrs. Maisel [01х01-03 из 08] (2017) WEBRip 1080р | P

0 | 0

8.66 ГБ

В этой теме нет новых непрочитанных сообщений. Удивительная миссис Мейзел / The Marvelous Mrs. Maisel [01х01-07 из 08] (2017) WEBRip 1080р | L

0 | 0

19.19 ГБ

В этой теме нет новых непрочитанных сообщений. Удивительная миссис Мейзел / The Marvelous Mrs. Maisel [S01] (2017) WEBRip 1080р | L

0 | 0

22.26 ГБ

В этой теме нет новых непрочитанных сообщений. Удивительная миссис Мейзел / The Marvelous Mrs. Maisel [01х01-05 из 08] (2017) WEBRip 720р | Ozz

48 | 15

5.79 ГБ

В этой теме нет новых непрочитанных сообщений. Удивительная миссис Мейзел / The Marvelous Mrs. Maisel [01х01-08 из 08] (2017) WEBRip 1080p | D1

0 | 0

22.52 ГБ

В этой теме нет новых непрочитанных сообщений. Удивительная миссис Мейзел / The Marvelous Mrs. Maisel [01х01-08 из 08] (2017) WEBRip 720p | D1

0 | 0

9.17 ГБ




Вы не можете начинать темы
Вы не можете отвечать на сообщения
Вы не можете редактировать свои сообщения
Вы не можете удалять свои сообщения
Вы не можете добавлять вложения

Перейти:  
Для Мосгорсуда, Роскомнадзора и рекламодателей: mosgorsud-torrent[собачка]yandex.ru
 Вход
ppkBB3cker v.2 © 2008-2014 @ PPK
[ Time : 0.076s | 18 Queries | GZIP : Off ]

cron