img image001 image001 image001 image001 image001 image001 image001 image001 image001 image001 image001 image001 image001 image001 image001

Planets Sun Sun Sun
Статистика раздачи
Автор: Nickolas3434 | Размер: 2.47 ГБ | Добавлен: 12 янв 2018
Раздают: 20    Качают: 6
Скачать торрент
Скачать торрент
Описание торрента

СообщениеДобавлено: 12 янв 2018 

Информация о фильме
Название: Спасение
Оригинальное название: Salvation
Год выхода: 2017
Жанр: Фантастика, триллер, драма
Режиссер: Хуан Карлос Фреснадильо, Ник Гомез, Грег Биман
В ролях: Иэн Энтони Дэйл, Дэннис Буцикарис, Сантьяго Кабрера, Дженнифер Финниган, Чарли Роу, Шон Аффлек, Жаклин Байерс, Грег Кэлдерон
О фильме:
Грейс Дэрроу совмещает непростую работу пресс-секретаря Пентагона с не менее сложной ролью матери-одиночки. Жизнь Грейс переворачивается, когда аспирант Массачусетского технологического института Лиам и технический гений Дариус сообщают ей, что всего через шесть месяцев в Землю врежется астероид и всё живое на планете погибнет. Вовлечённая в секретную правительственную миссию по спасению человечества Грейс изо всех сил старается уберечь свою семью от трагических новостей и проходит через испытания, с которыми ещё никто и никогда не сталкивался.

Страна: США
Студия: Secret Hideout, Still Married Productions, CBS Television Studios
Продолжительность: 13 x ~ 00:43:00
Перевод: Профессиональный (многоголосый, закадровый) [Jaskier]
Файл
Формат: MP4
Качество: HDTVRip | КПК
Видео: MPEG-4 AVC (x264), 640x360, ~500 kbps, 23.976 fps
Аудио: AAC LC, 48.0 KHz, 2 ch, 128 Kbps
Субтитры: Нет
Внимание! Присутствует аудиореклама.
Семпл

Complete name : F:КИНОSpasenie.AVC.KPK.GFSpasenie.S01.2017.AVC.HDTVRip.KPK.Jaskier.GFSpasenie.s01e02.2017.AVC.HDTVRip.KPK.Jaskier.GF.mp4
Format : MPEG-4
Codec ID : M4V (isom/iso2/avc1)
File size : 195 MiB
Duration : 42 min 56 s
Overall bit rate mode : Variable
Overall bit rate : 633 kb/s
Writing application : Lavf53.19.0
Video
ID : 1
Format : AVC
Format/Info : Advanced Video Codec
Format profile : [email protected]
Format settings, CABAC : Yes
Format settings, RefFrames : 8 frames
Codec ID : avc1
Codec ID/Info : Advanced Video Coding
Duration : 42 min 55 s
Bit rate : 500 kb/s
Width : 640 pixels
Height : 360 pixels
Display aspect ratio : 16:9
Frame rate mode : Constant
Frame rate : 23.976 (24000/1001) FPS
Color space : YUV
Chroma subsampling : 4:2:0
Bit depth : 8 bits
Scan type : Progressive
Bits/(Pixel*Frame) : 0.091
Stream size : 154 MiB (79%)
Writing library : x264 core 148 r2638 7599210
Encoding settings : cabac=1 / ref=8 / deblock=1:-2:-2 / analyse=0x3:0x133 / me=umh / subme=10 / psy=1 / psy_rd=1.00:0.00 / mixed_ref=1 / me_range=24 / chroma_me=1 / trellis=2 / 8x8dct=1 / cqm=0 / deadzone=21,11 / fast_pskip=1 / chroma_qp_offset=-2 / threads=6 / lookahead_threads=1 / sliced_threads=0 / nr=0 / decimate=0 / interlaced=0 / bluray_compat=0 / constrained_intra=0 / bframes=8 / b_pyramid=2 / b_adapt=2 / b_bias=0 / direct=3 / weightb=1 / open_gop=0 / weightp=2 / keyint=240 / keyint_min=121 / scenecut=40 / intra_refresh=0 / rc_lookahead=40 / rc=2pass / mbtree=1 / bitrate=500 / ratetol=1.0 / qcomp=0.60 / qpmin=0 / qpmax=69 / qpstep=4 / cplxblur=20.0 / qblur=0.5 / ip_ratio=1.40 / aq=1:1.00
Menus : 3
Audio
ID : 2
Format : AAC
Format/Info : Advanced Audio Codec
Format profile : LC
Codec ID : 40
Duration : 42 min 56 s
Bit rate mode : Variable
Bit rate : 128 kb/s
Channel(s) : 2 channels
Channel positions : Front: L R
Sampling rate : 48.0 kHz
Frame rate : 46.875 FPS (1024 SPF)
Compression mode : Lossy
Stream size : 39.3 MiB (20%)
Default : Yes
Alternate group : 1
Menus : 3

Релиз от:



   Похожие торренты   Торрент   Размер 
В этой теме нет новых непрочитанных сообщений. Спасение / Salvation [01x01 из 12] (2017) HDTVRip | Jaskier

76 | 13

550.27 МБ

В этой теме нет новых непрочитанных сообщений. Спасение / Salvation [01x01 из 12] (2017) HDTVRip 1080p | Jaskier

43 | 19

4.55 ГБ

В этой теме нет новых непрочитанных сообщений. Спасение / Salvation [01x01 из 12] (2017) HDTVRip 720p | Jaskier

60 | 11

1.05 ГБ

В этой теме нет новых непрочитанных сообщений. Спасение / Salvation [01x01 из 10] (2017) HDTVRip | IdeaFilm

581 | 33

596.81 МБ

В этой теме нет новых непрочитанных сообщений. Спасение / Salvation [01х01-10 из 12] (2017) HDTVRip | Profix Media

46 | 62

5.42 ГБ

В этой теме нет новых непрочитанных сообщений. Спасение / Salvation [01х01 из 12] (2017) HDTVRip | Profix Media

32 | 9

550.27 МБ

В этой теме нет новых непрочитанных сообщений. Спасение / Salvation [01х01-11 из 12] (2017) HDTVRip | Profix Media

27 | 46

5.96 ГБ




Вы не можете начинать темы
Вы не можете отвечать на сообщения
Вы не можете редактировать свои сообщения
Вы не можете удалять свои сообщения
Вы не можете добавлять вложения

Перейти:  
Для Мосгорсуда, Роскомнадзора и рекламодателей: mosgorsud-torrent[собачка]yandex.ru
 Вход
ppkBB3cker v.2 © 2008-2014 @ PPK
[ Time : 0.060s | 19 Queries | GZIP : Off ]

cron